<?xml version="1.0" standalone="no"?>
<!DOCTYPE svg PUBLIC "-//W3C//DTD SVG 1.1//EN" "http://www.w3.org/Graphics/SVG/1.1/DTD/svg11.dtd" >
<svg xmlns="http://www.w3.org/2000/svg">
<metadata>
This is a custom SVG font generated by IcoMoon.
<iconset grid="24"></iconset>
</metadata>
<defs>
<font id="ssfm-icons" horiz-adv-x="768" >
<font-face units-per-em="768" ascent="736" descent="-32" />
<missing-glyph horiz-adv-x="768" />
<glyph class="hidden" unicode="&#xf001;" d="M0,736L 768 -32L0 -32 z" horiz-adv-x="0" />
<glyph unicode="&#x5f;" d="M 288,296c0,0, 152.958,91.77, 239.075,55.519c 17.852,27.201, 35.436,56.502, 52.651,86.416
	C 495.482,458.577, 384,440, 384,440s 142.659,85.591, 230,58.8c 17.513,31.581, 34.541,62.731, 50.967,91.728
	C 595.385,595.23, 528,584, 528,584s 89.361,53.616, 169.934,62.698C 723.282,687.844, 746.811,720.109, 768,736C 347.25,736, 96,256,0-32
	l 48,0 l 144,240c0,0, 48-48, 192,0c 34.105,11.368, 68.211,42.939, 101.679,85.451C 401.217,314.866, 288,296, 288,296z"  />
<glyph unicode="&#x61;" d="M 288,592 C 473.568,592 624,441.567 624,256 L 552,256 C 552,326.518 524.539,392.813 474.677,442.676 C 424.813,492.54 358.517,520 288,520 L 288,592 ZM 288,736 C 553.095,736 768,521.095 768,256 L 696,256 C 696,311.11 685.222,364.536 663.967,414.788 C 643.42,463.365 613.992,507.005 576.5,544.5 C 539.005,581.993 495.365,611.422 446.788,631.968 C 396.536,653.222 343.112,664 288,664 L 288,736 ZM 430.793,398.794 C 463.611,365.977 479.99,322.964 479.97,279.957 C 432,207.96 432,112 432,112 C 240,112 96-32 96-32 L 85.5-21.5 L 68.153-4.153 L 280.839,208.534 C 283.176,208.184 285.566,208 288,208 C 314.51,208 336,229.49 336,256 C 336,282.51 314.51,304 288,304 C 261.49,304 240,282.51 240,256 C 240,253.566 240.184,251.175 240.534,248.839 L 27.848,36.153 L 0,64 C 0,64 144,208 144,400 C 144,400 239.998,400 311.998,448 C 354.995,448 397.989,431.597 430.793,398.794 Z"  />
<glyph unicode="&#x62;" d="M 768,304L 768,592 l-144,0 L 624,640 c0,26.4-21.6,48-48,48L 48,688 C 21.6,688,0,666.4,0,640l0-144 c0-26.4, 21.6-48, 48-48l 528,0 c 26.4,0, 48,21.6, 48,48l0,48 l 96,0 
	l0-192 L 288,352 l0-96 l-24,0 c-13.255,0-24-10.745-24-24l0-240 c0-13.255, 10.745-24, 24-24l 96,0 c 13.255,0, 24,10.745, 24,24L 384,232 c0,13.255-10.745,24-24,24l-24,0 l0,48 
	L 768,304 z M 576,592L 48,592 L 48,640 l 528,0 L 576,592 z"  />
<glyph unicode="&#x59;" d="M 768,293.167 L 384,591.237 L 0,293.165 L 0,414.694 L 384,712.764 L 768,414.692 ZM 672,304 L 672,16 L 480,16 L 480,208 L 288,208 L 288,16 L 96,16 L 96,304 L 384,520 Z"  />
<glyph unicode="&#x5b;" d="M 384,688L0,304l 72-72l 72,72l 48-288l 144,0 l0,144 l 96,0 l0-144 l 144,0 l 48,288l 72-72l 72,72L 384,688z M 384,380.119
		c-37.491,0-67.884,30.39-67.884,67.881s 30.393,67.883, 67.884,67.883c 37.488,0, 67.883-30.393, 67.883-67.883
		C 451.882,410.509, 421.488,380.119, 384,380.119z"  />
<glyph unicode="&#x5a;" d="M 768,280L 624,424L 624,640L 528,640L 528,520L 384,664L0,280L0,256L 96,256L 96,16L 336,16L 336,160L 432,160L 432,16L 672,16L 672,256L 768,256 z"  />
<glyph unicode="&#x44;" d="M 144,302.286l0-332.572 c 7.841-1.122, 15.851-1.715, 24-1.715l 24,0 L 192,304 l-24,0 C 159.85,304, 151.841,303.408, 144,302.286zM 576,304l0-336 l 24,0 c 8.151,0, 16.16,0.593, 24,1.715L 624,302.286 c-7.841,1.122-15.849,1.715-24,1.715L 576,304 zM 768,352C 768,564.078, 596.077,736, 384,736S0,564.078,0,352c0-46.063, 8.121-90.23, 22.992-131.155C 8.388,195.943,0,166.956,0,136
		c0-67.016, 39.245-124.859, 96-151.824L 96,287.824 c-15.095-7.171-28.935-16.545-41.143-27.678C 50.363,282.061, 48,304.755, 48,328
		C 48,513.568, 198.432,664, 384,664s 336-150.432, 336-336c0-23.245-2.361-45.939-6.856-67.854c-12.21,11.133-26.047,20.506-41.143,27.678
		l0-303.648 c 56.757,26.965, 96,84.809, 96,151.824c0,30.956-8.388,59.943-22.992,84.845C 759.879,261.77, 768,305.937, 768,352z"  />
<glyph unicode="&#x69;" d="M 672,640l0-624 L 168,16 c-39.767,0-72,32.235-72,72c0,39.764, 32.233,72, 72,72l 456,0 L 624,736 L 144,736 C 91.202,736, 48,692.8, 48,640l0-576 
		c0-52.8, 43.201-96, 96-96l 576,0 L 720,640 L 672,640 zM 192,112L 624,112L 624,64L 192,64z"  />
<glyph unicode="&#xe003;" d="M 648,736L 72,736 C 32.4,736,0,703.6,0,664l0-624 c0-39.6, 32.4-72, 72-72l 576,0 c 39.6,0, 72,32.4, 72,72L 720,664 C 720,703.6, 687.6,736, 648,736z M 624,64L 96,64 
		L 96,640 l 528,0 L 624,64 zM 192,304L 528,304L 528,256L 192,256zM 192,208L 528,208L 528,160L 192,160zM 240,520A72,72 4860 1 1 384,520A72,72 4860 1 1 240,520zM 360,448l-96,0 c-39.6,0-72-21.6-72-48l0-48 l 240,0 l0,48 C 432,426.4, 399.6,448, 360,448z"  />
<glyph unicode="&#x6e;" d="M 695.859,736L 479.438,736 c-39.679,0-95.097-22.955-123.153-51.010L 21.042,349.747c-28.056-28.056-28.056-73.968,0-102.024
	l 258.683-258.68c 28.056-28.057, 73.966-28.057, 102.023,0l 335.243,335.241C 745.045,352.342, 768,407.761, 768,447.437L 768,663.859 
	C 768,703.537, 735.536,736, 695.859,736z M 600,496c-39.765,0-72,32.235-72,72s 32.235,72, 72,72s 72-32.235, 72-72S 639.765,496, 600,496z"  />
<glyph unicode="&#x70;" d="M 696,640L 72,640 C 32.4,640,0,607.6,0,568l0-480 c0-39.6, 32.4-72, 72-72l 624,0 c 39.6,0, 72,32.4, 72,72L 768,568 C 768,607.6, 735.6,640, 696,640z
	 M 299.055,323.221L 96,165.052L 96,541.284 L 299.055,323.221z M 132.285,544L 635.715,544 L 384,355L 132.285,544z M 306.966,314.726L 384,232l 77.032,82.727
	L 618.948,112L 149.052,112 L 306.966,314.726z M 468.945,323.221L 672,541.284l0-376.231 L 468.945,323.221z"  />
<glyph unicode="&#xe005;" d="M 733.187,590.154c-25.488,7.281-52.057-7.478-59.34-32.967L 670.080,544L 222.373,544 l-6.744,53.954
		C 212.627,621.975, 192.207,640, 168,640L 48,640 C 21.491,640,0,618.51,0,592s 21.491-48, 48-48l 77.626,0 l 42.744-341.953
		C 171.373,178.027, 191.793,160, 216,160l 408,0 c 21.431,0, 40.266,14.208, 46.153,34.813l 96,336
		C 773.436,556.303, 758.676,582.871, 733.187,590.154z M 384,352l0,48 l 95.997,0 l0-48 L 384,352 z M 479.997,304l0-48 L 384,256 l0,48 L 479.997,304 z M 384,448l0,48 
		l 95.997,0 l0-48 L 384,448 z M 228.373,496L 336,496 l0-48 l-101.627,0 L 228.373,496z M 240.373,400L 336,400 l0-48 l-89.626,0 L 240.373,400z M 252.373,304L 336,304 l0-48 l-77.626,0 
		L 252.373,304z M 587.793,256l-59.796,0 l0,48 l 73.51,0 L 587.793,256z M 615.222,352l-87.225,0 l0,48 l 100.94,0 L 615.222,352z M 642.651,448l-114.654,0 
		l0,48 l 128.368,0 L 642.651,448zM 192,40A72,72 2700 1 1 336,40A72,72 2700 1 1 192,40zM 480,40A72,72 2700 1 1 624,40A72,72 2700 1 1 480,40z"  />
<glyph unicode="&#x73;" d="M 635.413,304c 26.4,0, 53.934,20.769, 61.186,46.153l 69.627,243.695C 773.48,619.231, 757.813,640, 731.413,640L 240,640 
	c0,53.019-42.981,96-96,96L0,736 l0-96 l 144,0 l0-408 c0-39.765, 32.235-72, 72-72l 456,0 c 26.509,0, 48,21.491, 48,48s-21.491,48-48,48L 240,256 l0,48 L 635.413,304 z
	 M 240,544l 434.105,0 l-41.143-144L 240,400 L 240,544 zM 288,28c0-33-27-60-60-60l-24,0 c-33,0-60,27-60,60l0,24 c0,33, 27,60, 60,60l 24,0 c 33,0, 60-27, 60-60L 288,28 zM 720,28c0-33-27-60-60-60l-24,0 c-33,0-60,27-60,60l0,24 c0,33, 27,60, 60,60l 24,0 c 33,0, 60-27, 60-60L 720,28 z"  />
<glyph unicode="&#x72;" d="M 96,40A72,72 10980 1 1 240,40A72,72 10980 1 1 96,40zM 576,40A72,72 10980 1 1 720,40A72,72 10980 1 1 576,40zM 720,352L 720,640 L 96,640 C 96,693.019, 53.020,736,0,736l0-48 c 26.468,0, 48-21.532, 48-48l 36.055-309.040C 62.085,313.366, 48,286.335, 48,256
		c0-53.020, 42.981-96, 96-96l 576,0 l0,48 L 144,208 c-26.509,0-48,21.491-48,48c0,0.165, 0.011,0.327, 0.012,0.492L 720,352z"  />
<glyph unicode="&#xe021;" d="M 384,736C 171.922,736,0,564.078,0,352s 171.922-384, 384-384s 384,171.922, 384,384S 596.077,736, 384,736z M 384,40
	c-172.313,0-312,139.688-312,312S 211.688,664, 384,664s 312-139.688, 312-312S 556.313,40, 384,40zM 456,424l-216,120l-48,0 l0-48 l 120-216l 216-120l 48,0 l0,48 L 456,424z M 384,304c-26.509,0-48,21.491-48,48c0,26.509, 21.491,48, 48,48
	c 26.509,0, 48-21.491, 48-48C 432,325.49, 410.51,304, 384,304z"  />
<glyph unicode="&#xe01d;" d="M 494.058,174.058L 336,332.118L 336,544L 432,544L 432,371.882L 561.942,241.942 	zM 384,736C 171.922,736,0,564.078,0,352s 171.922-384, 384-384s 384,171.922, 384,384S 596.077,736, 384,736z M 384,64
		c-159.059,0-288,128.941-288,288c0,159.059, 128.941,288, 288,288c 159.059,0, 288-128.941, 288-288C 672,192.942, 543.058,64, 384,64z"  />
<glyph unicode="&#xe01c;" d="M 384,736C 171.922,736,0,564.078,0,352s 171.922-384, 384-384s 384,171.922, 384,384S 596.077,736, 384,736z M 494.058,174.058L 336,332.118
		L 336,544 l 96,0 l0-172.118 l 129.942-129.94L 494.058,174.058z"  />
<glyph unicode="&#xe015;" d="M 192,688L 576,688L 576,592L 192,592zM 720,544L 48,544 C 21.6,544,0,522.4,0,496l0-240 c0-26.4, 21.597-48, 48-48l 144,0 l0-192 l 384,0 L 576,208 l 144,0 c 26.4,0, 48,21.6, 48,48L 768,496 
		C 768,522.4, 746.4,544, 720,544z M 528,64L 240,64 L 240,304 l 288,0 L 528,64 z M 730.8,472c0-19.22-15.581-34.8-34.799-34.8
		c-19.22,0-34.802,15.581-34.802,34.8s 15.582,34.8, 34.802,34.8C 715.221,506.8, 730.8,491.219, 730.8,472z"  />
<glyph unicode="&#xe028;" d="M 672,736L0,736 l0-768 l 768,0 L 768,640 L 672,736z M 384,640l 96,0 l0-192 l-96,0 L 384,640 z M 672,64L 96,64 L 96,640 l 48,0 l0-240 l 432,0 L 576,640 l 56.233,0 L 672,600.237L 672,64 z"  />
<glyph unicode="&#xe03a;" d="M 384,688 C 596.077,688 768,548.312 768,376 C 768,203.686 596.077,64 384,64 C 363.633,64 343.642,65.301 324.132,67.783 C 241.648-14.7 143.195-29.492 48-31.664 L 48-11.477 C 99.402,13.707 144,59.578 144,112 C 144,119.316 143.431,126.498 142.377,133.522 C 55.53,190.72 0,278.088 0,376 C 0,548.312 171.922,688 384,688 Z"  />
<glyph unicode="&#xe037;" d="M 384,592 C 342.801,592 303.009,585.504 265.729,572.694 C 230.695,560.653 199.5,543.636 173.008,522.111 C 123.348,481.762 96,429.873 96,376 C 96,345.776 104.391,316.466 120.939,288.886 C 138.003,260.446 163.675,234.446 195.18,213.697 C 217.947,198.703 233.265,174.736 237.312,147.776 C 238.662,138.788 239.508,129.711 239.839,120.683 C 245.442,125.329 250.902,130.318 256.25,135.665 C 274.365,153.779 298.835,163.783 324.126,163.783 C 328.152,163.783 332.197,163.531 336.243,163.015 C 351.974,161.015 368.041,160 384,160 C 425.2,160 464.991,166.495 502.27,179.306 C 537.304,191.347 568.5,208.365 594.991,229.889 C 644.652,270.236 672,322.127 672,376 C 672,429.873 644.652,481.762 594.991,522.111 C 568.5,543.634 537.304,560.653 502.27,572.694 C 464.991,585.504 425.2,592 384,592 Z M 384,688 L 384,688 C 596.077,688 768,548.312 768,376 C 768,203.686 596.077,64 384,64 C 363.633,64 343.642,65.301 324.132,67.783 C 241.648-14.7 143.195-29.492 48-31.664 L 48-11.477 C 99.402,13.707 144,59.578 144,112 C 144,119.316 143.431,126.498 142.377,133.522 C 55.53,190.72 0,278.088 0,376 C 0,548.312 171.922,688 384,688 Z"  />
<glyph unicode="&#xe034;" d="M 467.12,208.948c-16.582,2.638-16.96,48.235-16.96,48.235s 48.726,48.237, 59.346,113.101
	c 28.568,0, 46.214,68.959, 17.642,93.222C 528.339,489.048, 563.866,664, 384,664c-179.867,0-144.337-174.953-143.148-200.493
	c-28.571-24.263-10.928-93.222, 17.642-93.222c 10.618-64.865, 59.346-113.101, 59.346-113.101s-0.378-45.597-16.96-48.235
	C 247.464,200.449, 48,112.472, 48,16l 336,0 l 336,0 C 720,112.472, 520.536,200.449, 467.12,208.948z"  />
<glyph unicode="&#xe033;" d="M 551.245,131.969c-14.214,2.241-14.538,40.991-14.538,40.991s 41.766,40.992, 50.868,96.114
	c 24.489,0, 39.611,58.604, 15.123,79.221c 1.022,21.705, 31.476,170.382-122.699,170.382c-154.173,0-123.719-148.677-122.699-170.382
	c-24.491-20.617-9.366-79.221, 15.121-79.221c 9.101-55.122, 50.869-96.114, 50.869-96.114s-0.324-38.749-14.538-40.991
	C 362.969,124.745, 192,49.982, 192-32l 288,0 l 288,0 C 768,49.982, 597.032,124.745, 551.245,131.969zM 258.040,118.893c 33.071,20.362, 73.22,39.231, 106.154,50.568c-11.814,16.824-24.97,39.702-33.248,66.796
	c-11.555,9.425-20.958,22.899-26.998,39.451c-6.050,16.578-8.341,35.139-6.456,52.263c 1.353,12.294, 4.858,23.75, 10.238,33.816
	c-3.262,34.939-5.56,103.525, 39.336,153.549c 17.41,19.399, 39.417,33.345, 65.775,41.764C 408.135,605.671, 383.471,662.678, 288,662.678
	c-154.173,0-123.719-148.677-122.699-170.382c-24.491-20.617-9.366-79.221, 15.121-79.221c 9.101-55.122, 50.869-96.114, 50.869-96.114
	s-0.324-38.749-14.538-40.991C 170.969,268.745,0,193.982,0,112l 247.197,0 C 250.729,114.305, 254.326,116.605, 258.040,118.893z"  />
<glyph unicode="&#xe02e;" d="M 168.75,400 C 261.534,400 336.75,324.783 336.75,232 C 336.75,139.216 261.534,64 168.75,64 C 75.966,64 0.75,139.216 0.75,232 L 0,256 C 0,441.568 150.432,592 336,592 L 336,496 C 271.894,496 211.625,471.036 166.294,425.706 C 157.569,416.978 149.606,407.693 142.422,397.941 C 151,399.29 159.792,400 168.75,400 ZM 600.75,400 C 693.533,400 768.75,324.783 768.75,232 C 768.75,139.216 693.533,64 600.75,64 C 507.967,64 432.75,139.216 432.75,232 L 432,256 C 432,441.568 582.432,592 768,592 L 768,496 C 703.894,496 643.625,471.036 598.294,425.706 C 589.567,416.978 581.604,407.693 574.42,397.941 C 583,399.29 591.79,400 600.75,400 Z"  />
<glyph unicode="&#xe047;" d="M 744.197,82.453L 562.283,237.173c-18.806,16.924-38.918,24.695-55.164,23.944C 550.061,311.419, 576,376.676, 576,448
	C 576,607.059, 447.058,736, 288,736C 128.943,736,0,607.059,0,448c0-159.059, 128.941-288, 288-288c 71.323,0, 136.581,25.939, 186.882,68.883
	c-0.75-16.246, 7.020-36.358, 23.944-55.164l 154.721-181.914c 26.492-29.434, 69.767-31.916, 96.165-5.517S 773.631,55.962, 744.197,82.453z
	 M 288,256c-106.038,0-192,85.962-192,192S 181.962,640, 288,640s 192-85.962, 192-192S 394.039,256, 288,256z"  />
<glyph unicode="&#xe048;" d="M 744.197,82.453L 562.283,237.173c-18.806,16.924-38.918,24.695-55.164,23.944C 550.061,311.419, 576,376.676, 576,448
		C 576,607.059, 447.058,736, 288,736C 128.943,736,0,607.059,0,448c0-159.059, 128.941-288, 288-288c 71.323,0, 136.581,25.939, 186.882,68.883
		c-0.75-16.246, 7.020-36.358, 23.944-55.164l 154.721-181.914c 26.492-29.434, 69.767-31.916, 96.165-5.517S 773.631,55.962, 744.197,82.453
		z M 288,256c-106.038,0-192,85.962-192,192S 181.962,640, 288,640s 192-85.962, 192-192S 394.039,256, 288,256zM 336,592L 240,592L 240,496L 144,496L 144,400L 240,400L 240,304L 336,304L 336,400L 432,400L 432,496L 336,496 	z"  />
<glyph unicode="&#xe049;" d="M 744.197,82.453L 562.283,237.173c-18.806,16.924-38.918,24.695-55.164,23.944C 550.061,311.419, 576,376.676, 576,448
		C 576,607.059, 447.058,736, 288,736C 128.943,736,0,607.059,0,448c0-159.059, 128.941-288, 288-288c 71.323,0, 136.581,25.939, 186.882,68.883
		c-0.75-16.246, 7.020-36.358, 23.944-55.164l 154.721-181.914c 26.492-29.434, 69.767-31.916, 96.165-5.517S 773.631,55.962, 744.197,82.453
		z M 288,256c-106.038,0-192,85.962-192,192S 181.962,640, 288,640s 192-85.962, 192-192S 394.039,256, 288,256zM 144,496L 432,496L 432,400L 144,400z"  />
<glyph unicode="&#xe04a;" d="M 768,736 L 768,448 L 664.305,551.695 L 505.305,392.695 L 424.695,473.305 L 583.695,632.305 L 480,736 ZM 184.305,632.305 L 343.305,473.305 L 262.695,392.695 L 103.695,551.695 L 0,448 L 0,736 L 288,736 ZM 664.305,152.305 L 768,256 L 768-32 L 480-32 L 583.695,71.695 L 424.695,230.695 L 505.305,311.305 ZM 343.305,230.695 L 184.305,71.695 L 288-32 L 0-32 L 0,256 L 103.695,152.305 L 262.695,311.305 Z"  />
<glyph unicode="&#xe04b;" d="M 48,304 L 336,304 L 336,16 L 232.305,119.695 L 80.805-31.805 L 0.195,48.805 L 151.695,200.305 ZM 616.305,200.305 L 767.805,48.805 L 687.195-31.805 L 535.695,119.695 L 432,16 L 432,304 L 720,304 ZM 720,400 L 432,400 L 432,688 L 535.695,584.305 L 687.195,735.805 L 767.805,655.195 L 616.305,503.695 ZM 232.305,584.305 L 336,688 L 336,400 L 48,400 L 151.695,503.695 L 0.195,655.195 L 80.805,735.805 Z"  />
<glyph unicode="&#xe04c;" d="M 768,736 L 768,424 L 648,544 L 504,400 L 432,472 L 576,616 L 456,736 ZM 336,232 L 192,88 L 312-32 L 0-32 L 0,280 L 120,160 L 264,304 Z"  />
<glyph unicode="&#xe04d;" d="M 751.599,500.318l-75.829,75.828c-18.594,18.596-49.028,49.026-67.621,67.623l-75.829,75.828
	c-18.594,18.596-51.715,21.875-73.597,7.287L 251.392,588.666c-21.882-14.589-30.164-45.771-18.402-69.293l 52.865-105.73
	c 1.615-3.229, 3.484-6.672, 5.542-10.245L 24,136L0-32l 144,0 l0,48 l 96,0 l0,96 l 96,0 l0,96l 96,0 l0,53.39 c 4.797-2.859, 9.401-5.412, 13.644-7.533
	l 105.727-52.866c 23.524-11.761, 54.705-3.478, 69.293,18.404l 138.221,207.33C 773.475,448.603, 770.193,481.721, 751.599,500.318z
	 M 112.971,95.031l-33.941,33.941l 233.679,233.678l 33.941-33.941L 112.971,95.031z M 687.765,418.177l-33.942-33.942
	c-9.335-9.333-24.606-9.333-33.941,0L 416.235,587.882c-9.335,9.333-9.335,24.608,0,33.941l 33.942,33.942
	c 9.335,9.333, 24.606,9.333, 33.941,0L 687.765,452.118C 697.1,442.784, 697.1,427.51, 687.765,418.177z"  />
<glyph unicode="&#xe05e;" d="M 576,688l-96,0 c-79.403,0-144-64.597-144-144l0-144 L 36,400 c-19.8,0-36-16.2-36-36l0-360 c0-19.8, 16.2-36, 36-36l 408,0 c 19.8,0, 36,16.2, 36,36L 480,364 
	c0,19.8-16.2,36-36,36l-12,0 l0,144 c0,26.468, 21.532,48, 48,48l 96,0 c 26.468,0, 48-21.532, 48-48l0-144 l 96,0 l0,144 C 720,623.403, 655.403,688, 576,688z
	 M 288,64l-96,0 l 20.88,104.4C 200.274,177.049, 192,191.555, 192,208c0,26.509, 21.491,48, 48,48c 26.509,0, 48-21.491, 48-48
	c0-16.444-8.274-30.951-20.88-39.6L 288,64z"  />
<glyph unicode="&#xe05f;" d="M 444,400l-12,0 l0,144 c0,79.403-64.597,144-144,144l-96,0 c-79.403,0-144-64.597-144-144l0-144 l-12,0 c-19.8,0-36-16.2-36-36l0-360 
	c0-19.8, 16.2-36, 36-36l 408,0 c 19.8,0, 36,16.2, 36,36L 480,364 C 480,383.8, 463.8,400, 444,400z M 288,64l-96,0 l 20.88,104.4
	C 200.274,177.049, 192,191.555, 192,208c0,26.509, 21.491,48, 48,48c 26.509,0, 48-21.491, 48-48c0-16.444-8.274-30.951-20.88-39.6L 288,64
	z M 336,400L 144,400 l0,144 c0,26.468, 21.532,48, 48,48l 96,0 c 26.468,0, 48-21.532, 48-48L 336,400 z"  />
<glyph unicode="&#xe05c;" d="M 336,640l0,12 c0,19.8-16.2,36-36,36l-120,0 c-19.8,0-36-16.2-36-36l0-12 L0,640 l0-96 l 144,0 l0-12 c0-19.8, 16.2-36, 36-36l 120,0 c 19.8,0, 36,16.2, 36,36l0,12 
		l 432,0 L 768,640 L 336,640 z M 192,544L 192,640 l 96,0 l0-96 L 192,544 zM 624,412c0,19.8-16.2,36-36,36l-120,0 c-19.8,0-36-16.2-36-36l0-12 L0,400 l0-96 l 432,0 l0-12 c0-19.8, 16.2-36, 36-36l 120,0 c 19.8,0, 36,16.2, 36,36l0,12 
		l 144,0 l0,96 l-144,0 L 624,412 z M 480,304l0,96 l 96,0 l0-96 L 480,304 zM 336,172c0,19.8-16.2,36-36,36l-120,0 c-19.8,0-36-16.2-36-36l0-12 L0,160 l0-96 l 144,0 l0-12 c0-19.8, 16.2-36, 36-36l 120,0 c 19.8,0, 36,16.2, 36,36l0,12 
		l 432,0 l0,96 L 336,160 L 336,172 z M 192,64l0,96 l 96,0 l0-96 L 192,64 z"  />
<glyph unicode="&#xe05b;" d="M 672,400l 12,0 c 19.8,0 36,16.2 36,36l0,120 c0,19.8-16.2,36-36,36l-12,0 L 672,736 l-96,0 l 0-144 l-12,0 c-19.8,0, -36-16.2, -36-36l 0-120 c 0-19.8, 16.2-36, 36-36l 12,0 
		l 0-432 L 672-32 L 672,400 z M 576,544L 672,544 l 0-96 l-96,0 L 576,544 zM 444,112c 19.8,0 36,16.2 36,36l0,120 c0,19.8-16.2,36-36,36l-12,0 L 432,736 l-96,0 l 0-432 l-12,0 c-19.8,0, -36-16.2, -36-36l 0-120 c 0-19.8, 16.2-36, 36-36l 12,0 
		l 0-144 l 96,0 l0,144 L 444,112 z M 336,256l 96,0 l 0-96 l-96,0 L 336,256 zM 204,400c 19.8,0 36,16.2 36,36l0,120 c0,19.8-16.2,36-36,36l-12,0 L 192,736 l-96,0 l 0-144 l-12,0 c-19.8,0, -36-16.2, -36-36l 0-120 c 0-19.8, 16.2-36, 36-36l 12,0 
		l 0-432 l 96,0 L 192,400 L 204,400 z M 96,544l 96,0 l 0-96 l-96,0 L 96,544 z"  />
<glyph unicode="&#xe05a;" d="M 700.342,278.312c-40.294,69.791-16.062,159.228, 54.114,199.866l-75.47,130.719c-21.563-12.64-46.632-19.889-73.385-19.889
	c-80.652,0-146.031,65.809-146.031,146.993L 308.628,736.002 c 0.2-25.057-6.056-50.462-19.468-73.689
	c-40.293-69.792-129.867-93.526-200.147-53.069L 13.545,478.525c 21.727-12.354, 40.537-30.441, 53.914-53.608
	c 40.228-69.681, 16.134-158.94-53.781-199.668l 75.47-130.719c 21.487,12.522, 46.437,19.691, 73.050,19.691
	c 80.397,0, 145.608-65.394, 146.025-146.219l 150.94,0 c-0.065,24.805, 6.204,49.927, 19.474,72.913
	c 40.227,69.68, 129.582,93.445, 199.81,53.259l 75.47,130.718C 732.333,237.241, 713.649,255.265, 700.342,278.312z M 384,196.501
	c-85.881,0-155.502,69.618-155.502,155.5c0,85.881, 69.619,155.5, 155.502,155.5c 85.881,0, 155.499-69.619, 155.499-155.5
	C 539.498,266.119, 469.881,196.501, 384,196.501z"  />
<glyph unicode="&#xe059;" d="M 272.791,194.461l 30.974,43.362l-33.941,33.942l-43.364-30.972c-8.041,4.495-16.653,8.080-25.7,10.644L 192,304L 144,304 
		l-8.76-52.564c-9.046-2.564-17.658-6.149-25.7-10.644L 66.177,271.765L 32.235,237.823l 30.974-43.362
		c-4.495-8.040-8.080-16.654-10.644-25.7L0,160l0-48 l 52.564-8.761c 2.564-9.045, 6.149-17.658, 10.644-25.7L 32.235,34.177l 33.941-33.942
		l 43.364,30.972c 8.041-4.495, 16.653-8.080, 25.7-10.644L 144-32l 48,0 l 8.76,52.564c 9.046,2.564, 17.658,6.149, 25.7,10.644l 43.364-30.972
		l 33.941,33.942l-30.974,43.362c 4.495,8.040, 8.080,16.654, 10.644,25.7L 336,112l0,48 l-52.564,8.761
		C 280.872,177.806, 277.287,186.419, 272.791,194.461z M 168,88c-26.511,0-48,21.491-48,48s 21.489,48, 48,48s 48-21.491, 48-48
		S 194.511,88, 168,88zM 768,448l0,48 l-50.537,9.188c-0.931,6.034-2.124,11.983-3.543,17.843l 43.169,27.825L 738.72,595.201l-50.208-10.851
		c-3.161,5.183-6.545,10.215-10.119,15.098l 29.255,42.257l-33.942,33.941l-42.257-29.255c-4.884,3.575-9.915,6.957-15.098,10.12
		l 10.851,50.208L 582.857,725.089l-27.825-43.169c-5.859,1.419-11.808,2.612-17.843,3.543L 528,736l-48,0 l-9.189-50.537
		c-6.034-0.931-11.982-2.124-17.843-3.543L 425.145,725.089L 380.799,706.72l 10.851-50.208c-5.183-3.162-10.215-6.546-15.098-10.12
		l-42.257,29.255l-33.941-33.941l 29.255-42.257c-3.575-4.883-6.959-9.915-10.12-15.098l-50.208,10.851l-18.369-44.346l 43.169-27.825
		c-1.419-5.859-2.612-11.806-3.543-17.843L 240,496l0-48 l 50.537-9.188c 0.931-6.034, 2.124-11.983, 3.543-17.843l-43.169-27.825
		l 18.369-44.346l 50.208,10.851c 3.162-5.183, 6.546-10.213, 10.12-15.098l-29.255-42.257l 33.941-33.942l 42.257,29.255
		c 4.883-3.575, 9.915-6.957, 15.098-10.119l-10.851-50.208l 44.346-18.369l 27.826,43.169c 5.857-1.419, 11.806-2.612, 17.841-3.543L 480,208l 48,0 
		l 9.189,50.537c 6.033,0.931, 11.982,2.124, 17.843,3.543l 27.825-43.169l 44.346,18.369l-10.851,50.208
		c 5.183,3.162, 10.215,6.545, 15.098,10.119l 42.257-29.255l 33.942,33.942l-29.255,42.257c 3.575,4.884, 6.957,9.915, 10.119,15.098
		l 50.208-10.851l 18.369,44.348l-43.169,27.825c 1.419,5.859, 2.612,11.806, 3.543,17.843L 768,448z M 504,367.6
		c-57.659,0-104.4,46.742-104.4,104.4c0,57.659, 46.74,104.4, 104.4,104.4s 104.4-46.742, 104.4-104.4C 608.4,414.341, 561.66,367.6, 504,367.6z"  />
<glyph unicode="&#xe058;" d="M 768,279.929l0,144.141 l-110.081,18.346c-4.469,13.599-9.916,26.751-16.27,39.375l 64.84,90.776l-101.922,101.923l-90.619-64.728
		c-12.683,6.415-25.903,11.916-39.576,16.427L 456.071,736l-144.141,0 l-18.302-109.812c-13.672-4.511-26.893-10.011-39.575-16.427
		l-90.621,64.728l-101.923-101.923l 64.84-90.777c-6.353-12.622-11.8-25.774-16.269-39.373L0,424.070l0-144.141 l 110.338-18.39
		c 4.47-13.476, 9.908-26.511, 16.232-39.023l-65.061-91.086l 101.923-101.922l 91.24,65.171c 12.451-6.262, 25.418-11.646, 38.823-16.076
		L 311.93-32l 144.141,0 l 18.433,110.605c 13.405,4.429, 26.371,9.813, 38.825,16.074l 91.239-65.169l 101.922,101.922l-65.058,91.084
		c 6.324,12.511, 11.759,25.546, 16.23,39.024L 768,279.929z M 384,256c-53.019,0-96,42.98-96,96c0,53.019, 42.981,96, 96,96
		c 53.020,0, 96-42.981, 96-96C 480,298.98, 437.020,256, 384,256z"  />
<glyph unicode="&#xe05d;" d="M 752.2,122.593l-345.414,296.070C 422.873,448.887, 432,483.375, 432,520C 432,639.293, 335.293,736, 216,736
	c-21.821,0-42.879-3.249-62.734-9.265l 124.792-124.792c 18.668-18.668, 18.668-49.215,0-67.883l-76.117-76.117
	c-18.668-18.668-49.215-18.668-67.883,0L 9.265,582.734C 3.249,562.879,0,541.82,0,520c0-119.293, 96.707-216, 216-216
	c 36.626,0, 71.114,9.127, 101.337,25.215l 296.070-345.414c 17.181-20.043, 46.512-21.169, 65.178-2.503l 76.119,76.119
	C 773.37,76.082, 772.243,105.412, 752.2,122.593z"  />
<glyph unicode="&#xe053;" d="M 336,304L 336,640 C 150.432,640,0,489.568,0,304s 150.432-336, 336-336s 336,150.432, 336,336c0,54.026-12.771,105.063-35.427,150.286
		L 336,304zM 684.573,550.286C 629.409,660.398, 515.543,736, 384,736l0-336 L 684.573,550.286z"  />
<glyph unicode="&#xe052;" d="M 96,64 L 768,64 L 768-32 L 0-32 L 0,736 L 96,736 ZM 216,112 C 176.235,112 144,144.235 144,184 C 144,223.765 176.235,256 216,256 C 218.121,256 220.216,255.889 222.291,255.711 L 299.685,384.7 C 292.305,396.002 288,409.496 288,424.002 C 288,463.767 320.235,496.002 360,496.002 C 399.765,496.002 432,463.767 432,424.002 C 432,409.495 427.695,396.002 420.315,384.7 L 497.709,255.711 C 499.784,255.889 501.879,256 504,256 C 505.602,256 507.186,255.929 508.763,255.827 L 636.529,479.419 C 628.627,490.975 624,504.946 624,520.002 C 624,559.767 656.235,592.002 696,592.002 C 735.765,592.002 768,559.767 768,520.002 C 768,480.237 735.765,448.002 696,448.002 C 694.395,448.002 692.814,448.072 691.237,448.175 L 563.471,224.582 C 571.373,213.028 576,199.055 576,184 C 576,144.235 543.765,112 504,112 C 464.235,112 432,144.235 432,184 C 432,198.505 436.305,211.999 443.683,223.302 L 366.291,352.29 C 364.216,352.111 362.121,352 360,352 C 357.879,352 355.784,352.11 353.709,352.29 L 276.315,223.3 C 283.695,211.999 288,198.505 288,184 C 288,144.235 255.765,112 216,112 Z"  />
<glyph unicode="&#xe051;" d="M0,112L 768,112L 768,16L0,16zM 96,304L 192,304L 192,160L 96,160zM 240,496L 336,496L 336,160L 240,160zM 384,352L 480,352L 480,160L 384,160zM 528,640L 624,640L 624,160L 528,160z"  />
<glyph unicode="&#xe050;" d="M 216,448L 72,448 c-13.2,0-24-10.8-24-24l0-432 c0-13.2, 10.8-24, 24-24l 144,0 c 13.2,0, 24,10.8, 24,24L 240,424 C 240,437.2, 229.2,448, 216,448z M 216,16
		L 72,16 L 72,208 l 144,0 L 216,16 zM 456,544l-144,0 c-13.2,0-24-10.8-24-24l0-528 c0-13.2, 10.8-24, 24-24l 144,0 c 13.2,0, 24,10.8, 24,24L 480,520 C 480,533.2, 469.2,544, 456,544z
		 M 456,16l-144,0 L 312,256 l 144,0 L 456,16 zM 696,640l-144,0 c-13.2,0-24-10.8-24-24l0-624 c0-13.2, 10.8-24, 24-24l 144,0 c 13.2,0, 24,10.8, 24,24L 720,616 C 720,629.2, 709.2,640, 696,640z M 696,16l-144,0 
		L 552,304 l 144,0 L 696,16 z"  />
<glyph unicode="&#xe06c;" d="M 240.756-32 C 189.572,74.506 216.829,135.534 256.168,193.033 C 299.248,256 310.351,318.332 310.351,318.332 C 310.351,318.332 344.217,274.308 330.671,205.452 C 390.5,272.052 401.788,378.161 392.757,418.799 C 527.993,324.29 585.789,119.658 507.899-32 C 922.178,202.399 610.947,553.129 556.764,592.637 C 574.825,553.131 578.25,486.25 541.764,453.793 C 480,688 327.285,736 327.285,736 C 345.346,615.217 261.813,483.142 181.263,384.452 C 178.433,432.615 175.426,465.849 150.1,511.937 C 144.416,424.445 77.552,353.127 59.445,265.466 C 34.919,146.752 77.817,59.832 240.756-32 Z"  />
<glyph unicode="&#xe070;" d="M 600,640L 168,640 c-39.765,0-72-32.235-72-72l0-24 l 576,0 l0,24 C 672,607.765, 639.765,640, 600,640zM 474.24,688l 10.587-75.75L 283.173,612.25 l 10.585,75.75L 474.24,688  M 480,736L 288,736 c-19.8,0-38.242-16.044-40.982-35.653l-14.035-100.443
	C 230.243,580.294, 244.2,564.25, 264,564.25l 240,0 c 19.8,0, 33.758,16.044, 31.018,35.653l-14.035,100.443C 518.243,719.956, 499.8,736, 480,736L 480,736z
	M 612,496L 156,496 c-26.4,0-46.044-21.511-43.654-47.803l 39.309-432.394C 154.044-10.488, 177.6-32, 204-32l 360,0 
	c 26.4,0, 49.956,21.511, 52.346,47.802l 39.307,432.394C 658.044,474.488, 638.4,496, 612,496z M 288,64l-72,0 l-24,336l 96,0 L 288,64 z M 432,64l-96,0 
	L 336,400 l 96,0 L 432,64 z M 552,64l-72,0 L 480,400 l 96,0 L 552,64z"  />
<glyph unicode="&#xe07b;" d="M 480,626.059l0-101.969 c 27.155-11.853, 52.125-28.806, 73.706-50.385C 599.037,428.375, 624,368.106, 624,304
		s-24.965-124.376-70.294-169.706C 508.375,88.964, 448.107,64, 384,64s-124.376,24.965-169.706,70.294
		C 168.964,179.625, 144,239.894, 144,304s 24.965,124.376, 70.294,169.706c 21.581,21.581, 46.551,38.534, 73.706,50.386L 288,626.059 
		C 149.214,584.749, 48,456.205, 48,304c0-185.568, 150.434-336, 336-336c 185.568,0, 336,150.432, 336,336
		C 720,456.205, 618.787,584.749, 480,626.059zM 336,736L 432,736L 432,352L 336,352z"  />
<glyph unicode="&#xe090;" d="M 384,496C 226.974,496, 87.567,420.583,0,304c 87.567-116.584, 226.974-192, 384-192c 157.026,0, 296.433,75.416, 384,192
	C 680.433,420.583, 541.026,496, 384,496z M 336,400c 26.509,0, 48-21.491, 48-48s-21.491-48-48-48s-48,21.491-48,48S 309.49,400, 336,400z
	 M 580.212,207.028c-29.736-15.194-61.239-26.897-93.635-34.782C 453.212,164.119, 418.701,160, 384,160
	c-34.7,0-69.212,4.119-102.576,12.243c-32.395,7.889-63.898,19.591-93.635,34.782c-47.265,24.151-90.166,57.307-125.73,96.974
	c 35.563,39.666, 78.465,72.825, 125.73,96.974c 24.252,12.391, 49.681,22.46, 75.811,30.030C 248.685,408.32, 240,381.176, 240,352
	c0-79.53, 64.472-144, 144-144c 79.528,0, 144,64.47, 144,144c0,29.177-8.687,56.32-23.599,79.005c 26.129-7.572, 51.558-17.64, 75.811-30.032
	c 47.267-24.148, 90.163-57.306, 125.728-96.974C 670.375,264.336, 627.477,231.175, 580.212,207.028z M 645.688,553.208
	C 564.149,594.874, 476.105,616, 384,616c-92.105,0-180.149-21.126-261.688-62.791C 78.233,530.684, 37.013,502.281,0,469.151l0-81.904 
	c 41.504,43.925, 90.52,80.816, 144.145,108.218C 218.861,533.642, 299.559,553, 384,553s 165.139-19.357, 239.853-57.537
	c 53.626-27.402, 102.644-64.293, 144.147-108.218L 768,469.15 C 730.987,502.281, 689.769,530.684, 645.688,553.208z"  />
<glyph unicode="&#xe08f;" d="M 629.491,513.688 C 687.725,472.415 735.519,416.869 768,352 C 696.659,209.532 551.486,112 384,112 C 337.076,112 291.906,119.659 249.617,133.813 L 308.084,192.28 C 332.877,186.805 358.313,184 384,184 C 451.168,184 516.64,203.115 573.335,239.278 C 618.456,268.060 656.692,306.61 685.411,352.002 C 657.623,395.926 620.901,433.414 577.674,461.872 L 629.491,513.688 ZM 384,212.5 C 366.957,212.5 350.436,214.732 334.704,218.9 L 569.593,453.788 C 573.765,438.059 576,421.543 576,404.5 C 576,298.462 490.038,212.5 384,212.5 ZM 720,736l-40.303,0 L 514.987,571.291C 473.68,584.734, 429.672,592, 384,592C 216.512,592, 71.338,494.469,0,352
		c 31.994-63.894, 78.846-118.731, 135.895-159.801L0,56.303L0,16 l 40.303,0 L 720,695.697L 720,736 z M 312,500.5c 36.033,0, 65.885-26.47, 71.169-61.028
		l-82.143-82.143C 266.471,362.615, 240,392.467, 240,428.5C 240,468.265, 272.235,500.5, 312,500.5z M 82.587,352
		c 28.719,45.393, 66.956,83.943, 112.076,112.722c 2.939,1.875, 5.907,3.691, 8.893,5.475C 196.087,449.701, 192,427.581, 192,404.5
		c0-43.893, 14.737-84.336, 39.523-116.672l-43.912-43.912C 145.557,272.147, 109.796,308.995, 82.587,352z"  />
<glyph unicode="&#xe08b;" d="M 715.047,680.019l-3.021,3.031c-70.611,70.6-186.145,70.6-256.745,0L 291.702,519.448
		c-70.6-70.599-70.6-186.132,0-256.733l 3.019-3.019c 5.874-5.886, 12.11-11.193, 18.552-16.093l 59.886,59.887
		c-6.976,4.12-13.595,9.054-19.587,15.045l-3.031,3.031c-38.335,38.323-38.335,100.704,0,139.042L 514.137,624.193
		c 38.337,38.339, 100.706,38.339, 139.040,0l 3.031-3.018c 38.325-38.337, 38.325-100.719,0-139.042l-74.014-74.014
		c 12.849-31.731, 18.936-65.55, 18.404-99.29l 114.453,114.453C 785.651,493.883, 785.651,609.415, 715.047,680.019zM 473.282,444.299c-5.874,5.874-12.11,11.192-18.552,16.080l-59.886-59.874c 6.978-4.122, 13.595-9.056, 19.587-15.047l 3.031-3.030
		c 38.337-38.337, 38.337-100.704,0-139.041L 253.864,79.787c-38.339-38.326-100.707-38.326-139.041,0l-3.031,3.031
		c-38.323,38.34-38.323,100.707,0,139.041l 74.016,74.014c-12.851,31.729-18.934,65.552-18.404,99.29l-114.452-114.449
		c-70.602-70.599-70.602-186.133,0-256.743l 3.019-3.024c 70.614-70.596, 186.144-70.596, 256.746,0l 163.583,163.589
		c 70.6,70.599, 70.6,186.145,0,256.745L 473.282,444.299z"  />
<glyph unicode="&#xe08d;" d="M 523.374,490.714l-48.714,48.691L 231.053,295.849c-40.361-40.344-40.361-105.786,0-146.133
	c 40.353-40.344, 105.795-40.344, 146.155,0l 292.329,292.281c 67.285,67.246, 67.285,176.297,0,243.544
	c-67.249,67.278-176.334,67.278-243.587,0L 119.002,378.682l 0.026-0.024c-0.217-0.228-0.459-0.432-0.657-0.634
	c-93.827-93.822-93.827-245.892,0-339.68c 93.791-93.792, 245.901-93.792, 339.741,0c 0.206,0.206, 0.387,0.426, 0.615,0.657l 0.024-0.026
	l 209.499,209.469l-48.74,48.69L 410.025,87.688l-0.012,0 c-0.222-0.201-0.423-0.427-0.634-0.633
	c-66.805-66.794-175.485-66.794-242.307,0c-66.796,66.781-66.796,175.441,0,242.233c 0.228,0.228, 0.453,0.436, 0.666,0.634l-0.035,0.045
	l 306.96,306.875c 40.284,40.303, 105.858,40.303, 146.165,0c 40.284-40.3, 40.284-105.861,0-146.13L 328.498,198.437
	c-13.452-13.442-35.291-13.442-48.729,0c-13.42,13.415-13.42,35.274,0,48.69L 523.374,490.714z"  />
<glyph unicode="&#xe08c;" d="M 624,606.77 C 681.35,606.77 732.819,637.987 768,661.6 L 768,214.832 C 732.819,191.218 681.35,160 624,160 C 566.65,160 515.181,177.002 480,200.617 C 444.819,224.227 393.35,241.23 336,241.23 C 278.65,241.23 227.183,212.043 192,188.433 L 192,635.2 C 227.183,658.813 278.65,688 336,688 C 393.35,688 444.819,670.999 480,647.386 C 515.181,623.773 566.65,606.77 624,606.77 ZM 96,736 C 122.51,736 144,714.509 144,688 L 144-32 L 48-32 L 48,688 C 48,714.509 69.49,736 96,736 Z"  />
<glyph unicode="&#xe0d9;" d="M0,160L 192,352L 576-32L 768,160L 384,544L 575.999,736L0,736 z"  />
<glyph unicode="&#xe0d8;" d="M 384.001,736L0,352L 240,352L 240-31.999L 528-32L 528,352L 768,352 z"  />
<glyph unicode="&#xe0e9;" d="M 192,736L 384.001,544L0,160L 192-32L 576,352L 768,160.001L 768,736 z"  />
<glyph unicode="&#xe0ea;" d="M 768,352L 384,736L 384,496L 0.002,496L0,208L 384,208L 384-32 z"  />
<glyph unicode="&#xe0eb;" d="M 768,544L 576,352L 192,736L0,544L 384.001,160L 192.002-32L 768-32 z"  />
<glyph unicode="&#xe0ec;" d="M 384-32L 768,352L 528,352L 528,735.998L 240,736L 240,352L0,352 z"  />
<glyph unicode="&#xe0ed;" d="M 576-32L 384,160L 768,544L 576,736L 192,351.999L0,543.998L0-32 z"  />
<glyph unicode="&#xe0ee;" d="M0,352L 384-32L 384,208L 767.999,208L 768,496L 384,496L 384,736 z"  />
<glyph unicode="&#xe0ff;" d="M0,736l0-768 l 768,0 L 768,736 L0,736 z M 720,16L 48,16 L 48,688 l 672,0 L 720,16 z"  />
<glyph unicode="&#xe100;" d="M0,736l0-768 l 768,0 L 768,736 L0,736 z M 720,16L 48,16 L 48,688 l 672,0 L 720,16 zM 192,544L 576,544L 576,160L 192,160z"  />
<glyph unicode="&#xe128;" d="M 592.15,688c0,0-150.717,0-200.955,0c-90.091,0-174.877-68.255-174.877-147.316c0-80.794, 61.412-146, 153.066-146
	c 6.373,0, 12.567,0.128, 18.63,0.564c-5.946-11.389-10.2-24.216-10.2-37.532c0-22.453, 12.078-40.657, 27.351-55.518
	c-11.54,0-22.681-0.336-34.839-0.336c-111.587,0.002-197.475-71.070-197.475-144.767c0-72.584, 94.156-117.984, 205.75-117.984
	c 127.218,0, 197.479,72.183, 197.479,144.771c0,58.202-17.172,93.054-70.264,130.6c-18.162,12.857-52.899,44.127-52.899,62.508
	c0,21.54, 6.147,32.151, 38.571,57.484c 33.234,25.968, 56.756,62.477, 56.756,104.937c0,50.555-22.517,99.824-64.78,116.079l 63.717,0 
	L 592.15,688z M 521.961,196.407c 1.595-6.729, 2.463-13.656, 2.463-20.721c0-58.65-37.793-104.483-146.231-104.483
	c-77.132,0-132.837,48.828-132.837,107.475c0,57.481, 69.095,105.333, 146.223,104.499c 18-0.191, 34.776-3.087, 50.001-8.018
	C 483.452,246.038, 513.487,229.589, 521.961,196.407z M 398.464,415.168c-51.778,1.548-100.977,57.919-109.914,125.895
	c-8.937,67.999, 25.777,120.031, 77.541,118.493C 417.847,658, 467.069,603.445, 476.010,535.462
	C 484.94,467.467, 450.217,413.619, 398.464,415.168z"  />
<glyph unicode="&#xe129;" d="M 419.3,688c0,0-150.717,0-200.955,0C 128.255,688, 43.467,619.745, 43.467,540.683c0-80.794, 61.412-146, 153.066-146
		c 6.373,0, 12.567,0.128, 18.631,0.564c-5.947-11.389-10.201-24.216-10.201-37.532c0-22.453, 12.078-40.657, 27.351-55.518
		c-11.54,0-22.681-0.336-34.839-0.336C 85.888,301.864,0,230.794,0,157.097c0-72.584, 94.156-117.986, 205.75-117.986
		c 127.218,0, 197.479,72.183, 197.479,144.771c0,58.2-17.172,93.054-70.264,130.6c-18.162,12.858-52.898,44.127-52.898,62.508
		c0,21.54, 6.147,32.151, 38.571,57.484c 33.234,25.968, 56.754,62.477, 56.754,104.937c0,50.555-22.515,99.824-64.779,116.079l 63.715,0 
		L 419.3,688z M 349.11,196.407c 1.595-6.729, 2.463-13.654, 2.463-20.721c0-58.65-37.794-104.483-146.231-104.483
		c-77.132,0-132.837,48.828-132.837,107.475c0,57.481, 69.095,105.333, 146.223,104.499c 18-0.191, 34.776-3.087, 50.002-8.018
		C 310.601,246.040, 340.638,229.588, 349.11,196.407z M 225.613,415.168c-51.778,1.548-100.977,57.919-109.914,125.895
		c-8.937,67.999, 25.777,120.031, 77.541,118.493c 51.758-1.555, 100.978-56.11, 109.918-124.094
		C 312.089,467.467, 277.366,413.619, 225.613,415.168zM 624,544L 624,688L 576,688L 576,544L 432,544L 432,496L 576,496L 576,352L 624,352L 624,496L 768,496L 768,544 	z"  />
<glyph unicode="&#xe12a;" d="M 640.134,736L 126.931,736 C 56.356,736,0,677.66,0,607.091l0-510.264 C0,24.511, 56.356-32, 126.931-32l 513.201,0 
	C 710.705-32, 768,24.511, 768,96.827L 768,607.091 C 768,677.66, 710.705,736, 640.134,736z M 528,712l0-120 l-120,0 L 408,712 L 528,712 z M 360,712l0-120 l-120,0 L 240,712 L 360,712 z
	 M 24,592L 24,607.091 C 24,664.937, 70.174,712, 126.931,712L 192,712 l0-120 L 24,592 z M 576,256l-144,0 l0-144 l-96,0 l0,144 l-144,0 l0,96 l 144,0 l0,144 l 96,0 l0-144 l 144,0 L 576,256 z M 744,592L 576,592 L 576,712 
	l 64.134,0 C 697.407,712, 744,664.937, 744,607.091L 744,592 z"  />
<glyph unicode="&#xe12b;" d="M 0.605,83.752c-0.183,1.899-0.339,3.803-0.438,5.723C 0.264,87.554, 0.422,85.651, 0.605,83.752zM 176.931,312.139c 69.008-2.054, 115.3,69.523, 103.397,159.899c-11.921,90.36-77.547,162.876-146.556,164.941
		c-69.019,2.047-115.305-67.112-103.389-157.5C 42.294,389.128, 107.897,314.198, 176.931,312.139zM 768,544L 768,607.983 C 768,678.392, 710.413,736, 640.006,736L 128.014,736 C 58.807,736, 2.006,680.326, 0.091,611.556
		c 43.772,38.54, 104.493,70.737, 167.155,70.737c 66.978,0, 267.933,0, 267.933,0l-59.961-50.713l-84.951,0 
		c 56.347-21.603, 86.367-87.093, 86.367-154.292c0-56.436-31.358-104.966-75.666-139.476c-43.233-33.677-51.429-47.781-51.429-76.409
		c0-24.434, 46.309-66, 70.524-83.091c 70.787-49.903, 93.687-96.234, 93.687-173.592c0-12.321-1.531-24.622-4.55-36.72l 230.807,0 
		C 710.413-32, 768,25.562, 768,96.018L 768,495.998 l-144,0 L 624,352 l-48,0 l0,144 l-143.998,0 l0,48 L 576,544 L 576,688 l 48,0 l0-144 L 768,544 zM 139.415,161.548c 16.21,0, 31.066,0.443, 46.452,0.443c-20.36,19.75-36.469,43.95-36.469,73.785
		c0,17.706, 5.673,34.752, 13.601,49.89c-8.087-0.578-16.343-0.746-24.844-0.746c-55.767,0-103.13,18.057-138.153,47.891l0-50.431 
		l 0.005-151.297C 40.084,150.112, 87.671,161.548, 139.415,161.548zM 2.565,70.556c-0.834,4.094-1.474,8.255-1.906,12.476C 1.089,78.811, 1.731,74.65, 2.565,70.556zM 341.587,21.365c-11.293,44.105-51.34,65.973-107.166,104.676c-20.304,6.549-42.67,10.405-66.671,10.656
		c-67.213,0.723-129.831-26.206-165.162-66.279C 14.529,12.139, 66.365-32, 128.014-32l 214.833,0 c 1.362,8.346, 2.022,16.974, 2.022,25.824
		C 344.87,3.225, 343.719,12.418, 341.587,21.365z"  />
<glyph unicode="&#xe12c;" d="M 327.755,122.379 C 327.755,66.077 292.962,21.585 194.436,17.996 C 136.698,50.836 88.319,98.211 54.255,155.146 C 72.023,199.018 127.524,232.43 190.992,231.732 C 209.008,231.543 225.799,228.646 241.050,223.707 C 282.981,194.557 316.8,176.342 325.293,143.12 C 326.879,136.398 327.755,129.466 327.755,122.379 ZM 384,736C 273.045,736, 173.103,688.922, 103.001,613.676c 27.7,15.339, 60.403,24.478, 95.177,24.478c 50.301,0, 192.328,0, 192.328,0
		L 347.528,593.050L 297.045,593.050 c 35.622-20.409, 54.564-62.436, 54.564-108.759c0-42.519-23.562-76.785-56.835-102.793
		c-32.46-25.352-38.619-35.974-38.619-57.55c0-18.407, 38.791-45.823, 56.625-59.202c 62.114-46.584, 74.684-75.888, 74.684-134.153
		c0-59.044-51.702-117.828-139.4-137.806C 290.325-23.217, 336.134-32, 384-32c 212.077,0, 384,171.922, 384,384S 596.077,736, 384,736z
		 M 576,448l0-96 l-48,0 l0,96 l-96,0 l0,48 l 96,0 L 528,592 l 48,0 l0-96 l 96,0 l0-48 L 576,448 zM 274.326,481.396 C 283.267,413.314 253.442,369.504 201.625,371.046 C 149.781,372.607 100.521,420.165 91.57,488.227 C 82.624,556.318 117.384,608.417 169.218,606.874 C 221.036,605.319 265.383,549.468 274.326,481.396 ZM 165.665,254.449 C 109.654,254.449 62.069,235.123 28.533,206.551 C 10.156,251.416 0,300.518 0,352 C 0,394.575 6.942,435.526 19.734,473.797 C 25.264,399.216 77.748,341.653 164.462,341.653 C 170.847,341.653 177.034,341.984 183.117,342.419 C 177.154,330.997 172.9,318.277 172.9,304.933 C 172.9,282.456 185.267,269.63 200.551,254.763 C 189,254.763 177.849,254.449 165.665,254.449 Z"  />
<glyph unicode="&#xe12d;" d="M 431.903-32L 288-32 L 288,352 l-96,0 l0,132.337 l 96,0.044l-0.156,77.964C 287.844,670.309, 317.12,736, 444.293,736l 105.882,0 l0-132.363 l-66.172,0 
	c-49.524,0-51.904-18.492-51.904-53.013l-0.197-66.243l 119.017,0 l-14.028-132.337L 432,352L 431.903-32z"  />
<glyph unicode="&#xe12e;" d="M 640.008,736L 128.013,736 C 57.609,736,0,678.39,0,607.984l0-511.969 C0,25.561, 57.609-32, 128.013-32l 511.995,0.002
	c 70.407,0, 127.992,57.559, 127.992,128.016L 768,607.984 C 768,678.39, 710.413,736, 640.008,736z M 652.944,352L 528,352 l0-336 l-144,0 L 384,352 l-69.394,0 l0,109.923 L 384,461.923 
	l0,71.389 C 384,630.319, 425.844,688, 539.903,688l 131.433,0 l0-118.927 l-107.347,0 c-31.861,0.053-35.814-16.614-35.814-47.634L 528,461.923l 144,0 
	L 652.944,352z"  />
<glyph unicode="&#xe12f;" d="M 384,736 C 596.077,736 768,564.078 768,352 C 768,156.179 621.422-5.398 432-29.019 L 432,256 L 564,256 L 576,352 L 432,352 L 432,400 C 432,426.51 453.49,448 480,448 L 576,448 L 576,544 L 480,544 C 400.47,544 336,479.53 336,400 L 336,352 L 264,352 L 264,256 L 336,256 L 336,66.25 L 336-19.903 L 336-29.019 C 146.578-5.398 0,156.179 0,352 C 0,564.078 171.922,736 384,736 Z"  />
<glyph unicode="&#xe130;" d="M 640.5,736L 127.5,736 C 57.375,736,0,678.625,0,608.5l0-513 c0-70.125, 57.375-127.5, 127.5-127.5l 513,0 c 70.125,0, 127.5,57.375, 127.5,127.5L 768,608.5 C 768,678.625, 710.625,736, 640.5,736z
	 M 245.85,400l 276.3,0 c 5.241-15.043, 8.1-31.193, 8.1-48c0-80.643-65.607-146.25-146.25-146.25c-80.643,0-146.25,65.607-146.25,146.25
	C 237.75,368.808, 240.609,384.957, 245.85,400z M 672,399.962L 672,208 l0-96 c0-26.4-21.6-48-48-48L 144,64 c-26.4,0-48,21.6-48,48l0,96 L 96,399.962 L 96,400 
	l 75.081,0 c-3.482-15.451-5.331-31.512-5.331-48c0-120.344, 97.906-218.25, 218.25-218.25c 120.344,0, 218.25,97.906, 218.25,218.25
	c0,16.488-1.848,32.549-5.331,48L 672,400 L 672,399.962 z M 672,568c0-13.2-10.8-24-24-24l-48,0 c-13.2,0-24,10.8-24,24L 576,616 c0,13.2, 10.8,24, 24,24l 48,0 
	c 13.2,0, 24-10.8, 24-24L 672,568 z"  />
<glyph unicode="&#xe131;" d="M 768,590.186c-28.257-12.531-58.623-21.002-90.495-24.81c 32.529,19.5, 57.515,50.377, 69.279,87.172
	c-30.447-18.058-64.167-31.17-100.058-38.235c-28.74,30.622-69.691,49.755-115.010,49.755c-87.017,0-157.566-70.544-157.566-157.559
	c0-12.35, 1.393-24.375, 4.080-35.909c-130.95,6.573-247.051,69.3-324.763,164.63c-13.563-23.271-21.335-50.337-21.335-79.213
	c0-54.666, 27.816-102.894, 70.095-131.15c-25.829,0.819-50.124,7.906-71.365,19.709c-0.015-0.657-0.015-1.317-0.015-1.982
	c0-76.341, 54.314-140.022, 126.391-154.5c-13.22-3.6-27.141-5.529-41.511-5.529c-10.154,0-20.023,0.99-29.646,2.829
	c 20.052-62.595, 78.24-108.154, 147.189-109.422c-53.925-42.263-121.864-67.451-195.687-67.451c-12.718,0-25.26,0.746-37.587,2.205
	c 69.729-44.707, 152.551-70.796, 241.531-70.796c 289.817,0, 448.302,240.093, 448.302,448.308c0,6.831-0.154,13.626-0.458,20.385
	C 720.165,530.841, 746.877,558.591, 768,590.186z"  />
<glyph unicode="&#xe132;" d="M 640.006,736L 128.014,736 C 57.609,736,0,678.392,0,607.983l0-511.966 C0,25.562, 57.609-32, 128.014-32l 511.992,0 
	C 710.413-32, 768,25.562, 768,96.018L 768,607.983 C 768,678.392, 710.413,736, 640.006,736z M 628.539,479.625
	c 0.246-5.506, 0.367-11.046, 0.367-16.611c0-169.661-126.912-365.301-358.994-365.301c-71.253,0-137.576,21.261-193.415,57.689
	c 9.87-1.191, 19.914-1.796, 30.098-1.796c 59.117,0, 113.519,20.527, 156.701,54.962c-55.212,1.035-101.808,38.157-117.865,89.162
	c 7.705-1.5, 15.609-2.305, 23.739-2.305c 11.508,0, 22.654,1.572, 33.24,4.506c-57.72,11.799-101.212,63.687-101.212,125.892
	c0,0.541,0,1.079, 0.012,1.614c 17.010-9.615, 36.468-15.39, 57.15-16.058c-33.857,23.023-56.132,62.319-56.132,106.866
	c0,23.527, 6.221,45.584, 17.084,64.544c 62.231-77.677, 155.202-128.79, 260.066-134.147c-2.152,9.399-3.268,19.197-3.268,29.261
	c0,70.903, 56.494,128.385, 126.172,128.385c 36.293,0, 69.088-15.59, 92.102-40.544c 28.74,5.757, 55.743,16.44, 80.124,31.157
	c-9.421-29.982-29.425-55.142-55.474-71.032c 25.52,3.103, 49.839,10.005, 72.465,20.215C 674.588,520.339, 653.195,497.725, 628.539,479.625
	z"  />
<glyph unicode="&#xe133;" d="M 384,736C 171.922,736,0,564.078,0,352s 171.922-384, 384-384s 384,171.922, 384,384S 596.077,736, 384,736z M 604.681,465.184
	c 0.219-4.881, 0.332-9.792, 0.332-14.729c0-150.466-114.531-323.973-323.969-323.973c-64.302,0-124.152,18.852-174.544,51.16
	c 8.907-1.056, 17.971-1.595, 27.162-1.595c 53.347,0, 102.442,18.207, 141.413,48.745c-49.825,0.915-91.875,33.841-106.368,79.074
	c 6.955-1.326, 14.088-2.042, 21.424-2.042c 10.384,0, 20.444,1.392, 29.998,3.993c-52.089,10.464-91.34,56.484-91.34,111.651
	c0,0.48,0,0.959, 0.012,1.432c 15.352-8.527, 32.909-13.65, 51.573-14.241c-30.555,20.416-50.655,55.269-50.655,94.776
	c0,20.866, 5.616,40.428, 15.417,57.243c 56.159-68.891, 140.061-114.219, 234.693-118.971c-1.941,8.338-2.948,17.027-2.948,25.953
	c0,62.88, 50.985,113.859, 113.864,113.859c 32.749,0, 62.343-13.827, 83.114-35.955c 25.935,5.106, 50.305,14.582, 72.309,27.63
	c-8.502-26.59-26.557-48.904-50.064-62.995c 23.032,2.751, 44.976,8.874, 65.395,17.928
	C 646.237,501.293, 626.933,481.24, 604.681,465.184z"  />
<glyph unicode="&#xe134;" d="M 102.221,172.803c-56.397,0-102.219-46.001-102.219-102.057c0-56.365, 45.825-101.851, 102.219-101.851
		c 56.599,0, 102.37,45.486, 102.37,101.851C 204.589,126.802, 158.823,172.803, 102.221,172.803zM 0.117,475.053l0-147.194 c 95.838,0, 185.969-37.479, 253.844-105.384c 67.788-67.739, 105.212-158.277, 105.212-254.475l 147.841,0 
		C 507.012,247.615, 279.552,475.053, 0.117,475.053zM 0.291,736l0-147.267 c 341.837,0, 620.067-278.5, 620.067-620.733L 768-32 C 768,391.353, 423.559,736, 0.291,736z"  />
<glyph unicode="&#xe135;" d="M 640.005,736L 128.014,736 C 57.608,736,0,678.391,0,607.984l0-511.971 C0,25.562, 57.609-32, 128.016-32L 640.005-32 
	c 70.407,0, 127.995,57.561, 127.995,128.013L 768,607.984 C 768,678.391, 710.412,736, 640.005,736z M 209.208,112.564C 173.231,112.564, 144,141.583, 144,177.535
	c0,35.763, 29.229,65.109, 65.208,65.109c 36.118,0, 65.295-29.346, 65.295-65.109C 274.502,141.583, 245.325,112.564, 209.208,112.564z
	 M 373.101,112.003c0,61.358-23.856,119.114-67.095,162.333c-43.285,43.313-100.782,67.22-161.928,67.22L 144.078,435.445 
	c 178.239,0, 323.344-145.082, 323.344-323.441L 373.101,112.003L 373.101,112.003z M 539.721,112.003
	c0,218.297-177.493,395.955-395.532,395.955L 144.189,601.894 c 270.002,0, 489.71-219.843, 489.71-489.894L 539.721,112.003L 539.721,112.003z"  />
<glyph unicode="&#xe136;" d="M 384,736C 171.922,736,0,564.078,0,352s 171.922-384, 384-384s 384,171.922, 384,384S 596.077,736, 384,736z M 240,160
	c-26.509,0-48,21.491-48,48s 21.491,48, 48,48s 48-21.491, 48-48S 266.51,160, 240,160z M 372,160c0,99.252-80.748,180-180,180l0,72 
	c 138.954,0, 252-113.046, 252-252L 372,160 z M 516,160c0,86.543-33.702,167.907-94.898,229.103C 359.907,450.298, 278.544,484, 192,484l0,72 
	c 105.775,0, 205.219-41.191, 280.015-115.986C 546.808,365.219, 588,265.775, 588,160L 516,160 z"  />
<glyph unicode="&#xe137;" d="M0,504.722l 31.196-40.908c0,0, 64.328,50.706, 85.77,25.352c 21.441-25.352, 103.302-331.467, 130.627-387.934
	c 23.85-49.523, 89.638-114.99, 161.786-68.237c 72.102,46.755, 311.88,251.464, 354.799,493.212
	c 42.885,241.669-288.54,191.044-323.647-19.508c 87.742,52.677, 134.577-21.404, 89.677-105.279
	c-44.819-83.793-85.77-138.444-107.214-138.444c-21.404,0-37.867,56.076-62.391,154.084c-25.349,101.327-25.194,283.845-130.587,263.153
	C 130.627,660.704,0,504.722,0,504.722z"  />
<glyph unicode="&#xe147;" d="M 639.982,736L 128.017,736 C 57.609,736,0,678.388,0,607.981l0-511.965 C0,25.562, 57.609-32, 128.017-32l 511.965,0 
	C 710.391-32, 768,25.562, 768,96.018L 768,607.981 C 768,678.388, 710.391,736, 639.982,736z M 609.651,407.406
	c-25.468-143.472-167.781-264.972-210.585-292.733c-42.816-27.755-81.865,11.116-96.029,40.495
	c-16.212,33.531-64.808,215.205-77.526,230.265c-12.723,15.029-50.907-15.060-50.907-15.060l-18.519,24.282
	c0,0, 77.537,92.586, 136.53,104.158c 62.553,12.274, 62.46-96.049, 77.505-156.181c 14.55-58.173, 24.33-91.464, 37.032-91.464
	c 12.727,0, 37.036,32.447, 63.639,82.177c 26.652,49.782-1.153,93.758-53.229,62.469C 438.402,520.804, 635.109,550.855, 609.651,407.406z"  />
<glyph unicode="&#xe146;" d="M 384,736C 171.922,736,0,564.078,0,352s 171.922-384, 384-384s 384,171.922, 384,384S 596.077,736, 384,736z M 609.651,407.406
	c-25.468-143.472-167.781-264.972-210.585-292.733c-42.816-27.755-81.865,11.116-96.029,40.495
	c-16.212,33.531-64.808,215.205-77.526,230.265c-12.723,15.029-50.907-15.060-50.907-15.060l-18.519,24.282
	c0,0, 77.537,92.586, 136.53,104.158c 62.553,12.274, 62.46-96.049, 77.505-156.181c 14.55-58.173, 24.33-91.464, 37.032-91.464
	c 12.727,0, 37.036,32.447, 63.639,82.177c 26.652,49.782-1.153,93.758-53.229,62.469C 438.402,520.804, 635.109,550.855, 609.651,407.406z"  />
<glyph unicode="&#xe144;" d="M0,328A168,168 1260 1 1 336,328A168,168 1260 1 1 0,328zM 432,328A168,168 1260 1 1 768,328A168,168 1260 1 1 432,328z"  />
<glyph unicode="&#xe143;" d="M 600,424 C 547.065,424 504,380.935 504,328 C 504,275.065 547.065,232 600,232 C 652.935,232 696,275.065 696,328 C 696,380.935 652.935,424 600,424 Z M 600,496 L 600,496 C 692.783,496 768,420.784 768,328 C 768,235.217 692.783,160 600,160 C 507.217,160 432,235.217 432,328 C 432,420.784 507.217,496 600,496 ZM0,328A168,168 1260 1 1 336,328A168,168 1260 1 1 0,328z"  />
<glyph unicode="&#xe142;" d="M 640.032,736L 128.016,736 C 57.609,736,0,678.391,0,607.989l0-511.969 C0,25.562, 57.609-32, 128.016-32l 512.012,0 
	C 710.433-32, 768,25.566, 768,96.022L 768,607.989 C 768,678.391, 710.433,736, 640.032,736z M 216,232c-66.275,0-120,53.725-120,120
	c0,66.275, 53.725,120, 120,120s 120-53.725, 120-120C 336,285.726, 282.274,232, 216,232z M 552,232c-66.276,0-120,53.725-120,120
	c0,66.275, 53.724,120, 120,120s 120-53.725, 120-120C 672,285.726, 618.276,232, 552,232z"  />
<glyph unicode="&#xe156;" d="M 636,256l-11.143,312.015C 624.385,581.208, 634.8,592, 648,592l 96,0 c 13.2,0, 22.101-10.632, 19.782-23.627L 708,256M 720,154c0-23.1-18.9-42-42-42l-12,0 c-23.1,0-42,18.9-42,42l0,12 c0,23.1, 18.9,42, 42,42l 12,0 c 23.1,0, 42-18.9, 42-42L 720,154 zM 288,592C 128.941,592,0,484.549,0,352c0-132.547, 128.941-240, 288-240c 159.059,0, 288,107.453, 288,240
	C 576,484.549, 447.058,592, 288,592z M 480,400l-55.697,0 L 336,311.695L 336,256 l 72,0 l0-48 L 216,208 l0,48 l 72,0 l0,55.695 L 151.695,448L 120.149,448 l0,48 l 143.704,0 l0-48 L 232.305,448 
	L 312,368.305l 24,24L 336,448 l 144,0 L 480,400 z"  />
<glyph unicode="&#xe155;" d="M 640.035,736L 128.016,736 C 57.608,736, 0.002,678.39, 0.002,607.986l0-511.969 C 0.002,25.562, 57.608-32, 128.016-32L 640.035-32 
	C 710.438-32, 768,25.562, 768,96.016L 768,607.987 C 767.994,678.39, 710.431,736, 640.035,736z M 548.787,117.484
	c-22.614-10.641-43.146-18.141-61.5-22.453c-18.372-4.268-38.22-6.418-59.552-6.418c-24.234,0-38.532,3.043-57.141,9.141
	c-18.606,6.141-34.5,14.904-47.625,26.154c-13.168,11.346-22.264,23.398-27.349,36.145c-5.088,12.753-7.617,31.269-7.617,55.503L 288.003,401.407 
	l-71.997,0 l0,75.049 c 20.808,6.75, 44.952,16.451, 59.763,29.063c 14.88,12.654, 26.789,27.794, 35.763,45.513
	c 9.003,17.674, 15.188,40.219, 18.564,67.549l 75.375,0 L 405.471,496 L 528,496 l0-94.595 l-122.533,0 l0-135.891 c0-30.75-0.396-48.47, 2.862-57.188
	c 3.234-8.67, 11.345-17.67, 20.177-22.875c 11.742-7.032, 25.128-10.545, 40.219-10.545c 26.84,0, 53.534,8.72, 80.063,26.157L 548.787,117.484 
	L 548.787,117.484z"  />
<glyph unicode="&#xe154;" d="M 432.024,400 L 432.022,224.362 C 432.022,179.798 431.445,154.12 436.17,141.487 C 440.857,128.922 452.608,115.877 465.412,108.336 C 482.426,98.144 501.819,93.053 523.694,93.053 C 562.584,93.053 585.552,98.189 624,123.458 L 624,8 L 624,8 C 591.225-7.413 562.601-16.445 536.007-22.691 C 509.382-28.873 480.612-31.995 449.709-31.995 C 414.588-31.995 393.867-27.581 366.901-18.754 C 339.933-9.852 316.906,2.851 297.887,19.151 C 278.799,35.593 265.62,53.058 258.25,71.525 C 250.881,90.002 247.214,116.836 247.214,151.958 L 247.214,421.284 L 144.144,421.284 L 144.144,530.038 C 174.3,539.82 208.017,553.879 229.479,572.152 C 251.044,590.489 268.303,612.431 281.308,638.11 C 294.353,663.72 303.32,696.394 308.212,735.997 L 432.025,735.997 L 432.024,544 L 624,544 L 624,400 L 432.024,400 Z"  />
<glyph unicode="&#xe153;" d="M 640.011,736L 127.988,736 C 57.303,736,0,678.686,0,607.989l0-511.977 C0,25.312, 57.303-32, 127.988-32l 512.022,0 
	c 70.688,0, 127.986,57.312, 127.986,128.011L 768,607.989C 768,678.686, 710.697,736, 640.011,736z M 672,249.927
	C 672,147.184, 588.385,64, 484.917,64L 283.303,64 C 179.911,64, 96,147.184, 96,249.927L 96,454 c 0.072,102.75, 83.91,186, 187.303,186l 94.401,0 
	C 481.168,640, 564.003,562.75, 564,460c 1.352-19.27, 18.692-36, 38.469-36l 0.672,0 l 31.617,0 C 655.438,424, 672,402.299, 672,381.766L 672,249.927 zM 528,256c0-26.4-21.6-48-48-48L 288,208 c-26.4,0-48,21.6-48,48l0,0c0,26.4, 21.6,48, 48,48l 192,0 C 506.4,304, 528,282.4, 528,256
	L 528,256zM 432,448c0-26.4-21.6-48-48-48l-96,0 c-26.4,0-48,21.6-48,48l0,0c0,26.4, 21.6,48, 48,48l 96,0 C 410.4,496, 432,474.4, 432,448L 432,448
	z"  />
<glyph unicode="&#xe152;" d="M 718.347,448l-42.154,0 l-0.9,0 c-26.374,0-49.491,22.306-51.293,48l0,0C 624.003,633.001, 513.556,736, 375.608,736l-125.868,0 
	C 111.881,736, 0.098,625,0,488l0-272.099 C0,78.911, 111.881-32, 249.738-32l 268.815,0 C 656.514-32, 768,78.911, 768,215.902L 768,391.688 
	C 768,419.065, 745.92,448, 718.347,448z M 240,544l 144,0 c 26.4,0, 48-21.6, 48-48s-21.6-48-48-48l-144,0 c-26.4,0-48,21.6-48,48S 213.6,544, 240,544
	z M 528,160L 240,160 c-26.4,0-48,21.6-48,48s 21.6,48, 48,48l 288,0 c 26.4,0, 48-21.6, 48-48S 554.4,160, 528,160z"  />
<glyph unicode="&#xe14f;" d="M 389.056,327.472 L 477.579,91.265 C 478.162,89.878 478.878,88.603 479.642,87.4 C 449.707,77.139 417.538,71.5 384.003,71.5 C 355.733,71.5 328.449,75.535 302.637,82.928 L 389.056,327.472 ZM 672,352.005 C 672,248.527 614.418,158.182 528.795,109.561 L 616.76,357.265 C 633.194,397.281 638.662,429.28 638.662,457.728 C 638.662,468.057 637.959,477.638 636.721,486.571 C 659.205,446.625 672,400.777 672,352.005 ZM 96,352.006 C 96,392.674 104.958,431.279 120.939,466.161 L 258.322,99.572 C 162.242,145.030 96,240.986 96,352.006 ZM 143.373,506.074 C 194.867,582.216 283.386,632.5 384.006,632.5 C 458.982,632.5 527.25,604.581 578.487,558.853 C 577.245,558.926 576.034,559.079 574.755,559.079 C 546.465,559.079 526.39,535.078 526.39,509.298 C 526.39,486.181 540.087,466.625 554.68,443.51 C 565.63,424.831 578.421,400.829 578.421,366.154 C 578.421,342.153 568.944,314.291 556.509,275.479 L 527.775,182.005 L 423.69,483.519 C 441.027,484.402 456.651,486.181 456.651,486.181 C 472.172,487.972 470.344,510.184 454.817,509.298 C 454.817,509.298 408.163,505.733 378.054,505.733 C 349.754,505.733 302.203,509.298 302.203,509.298 C 286.671,510.183 284.849,487.075 300.375,486.181 C 300.375,486.181 315.067,484.406 330.584,483.519 L 375.45,363.781 L 312.417,179.689 L 207.541,483.519 C 224.898,484.405 240.505,486.181 240.505,486.181 C 256.011,487.972 254.18,510.184 238.662,509.298 C 238.662,509.298 192.022,505.733 161.907,505.733 C 156.502,505.733 150.131,505.862 143.373,506.074 ZM 639,736L 129,736 C 58.050,736,0,677.95,0,607l0-510 c0-70.95, 58.050-129, 129-129l 510,0 c 70.95,0, 129,58.050, 129,129L 768,607 C 768,677.95, 709.95,736, 639,736z M 720,352
		c0-185.568-150.432-336-336-336S 48,166.432, 48,352S 198.432,688, 384,688S 720,537.568, 720,352z"  />
<glyph unicode="&#xe14e;" d="M 96,352.006c0-111.020, 66.242-206.976, 162.322-252.433L 120.939,466.161C 104.958,431.279, 96,392.674, 96,352.006zM 578.421,366.154c0,34.675-12.79,58.677-23.741,77.356c-14.593,23.115-28.29,42.67-28.29,65.787
			c0,25.781, 20.075,49.782, 48.365,49.782c 1.278,0, 2.49-0.153, 3.732-0.226C 527.25,604.581, 458.982,632.5, 384.006,632.5
			c-100.62,0-189.139-50.285-240.633-126.426c 6.758-0.211, 13.13-0.341, 18.534-0.341c 30.116,0, 76.755,3.564, 76.755,3.564
			c 15.518,0.886, 17.349-21.326, 1.844-23.116c0,0-15.607-1.776-32.964-2.662l 104.876-303.829l 63.033,184.092l-44.867,119.738
			c-15.516,0.888-30.209,2.662-30.209,2.662c-15.527,0.894-13.704,24.002, 1.829,23.116c0,0, 47.55-3.564, 75.85-3.564
			c 30.11,0, 76.762,3.564, 76.762,3.564c 15.527,0.886, 17.355-21.326, 1.835-23.116c0,0-15.625-1.779-32.961-2.662L 527.775,182.005
			l 28.734,93.474C 568.944,314.291, 578.421,342.154, 578.421,366.154zM 389.056,327.472l-86.419-244.543c 25.812-7.394, 53.096-11.428, 81.366-11.428c 33.537,0, 65.703,5.638, 95.638,15.9
			c-0.764,1.202-1.48,2.478-2.063,3.865L 389.056,327.472zM 636.721,486.571c 1.239-8.933, 1.941-18.514, 1.941-28.843c0-28.447-5.469-60.447-21.902-100.462l-87.965-247.704
			C 614.418,158.182, 672,248.527, 672,352.005C 672,400.777, 659.205,446.625, 636.721,486.571zM 384,736C 171.922,736,0,564.078,0,352s 171.922-384, 384-384s 384,171.922, 384,384S 596.077,736, 384,736z M 384,16
		C 198.432,16, 48,166.432, 48,352S 198.432,688, 384,688s 336-150.432, 336-336S 569.568,16, 384,16z"  />
<glyph unicode="&#xe14d;" d="M 197.604,166.474c0-20.289, 17.17-30.437, 51.501-30.437c 30.048,0, 45.066,10.531, 45.066,31.601
		c0,19.904-16.384,29.847-49.158,29.847C 213.404,197.488, 197.604,187.153, 197.604,166.474zM 640.011,736L 128.016,736 C 57.609,736,0,678.392,0,607.984l0-511.969 C0,25.562, 57.609-32, 128.016-32l 511.995,0 
		C 710.412-32, 768,25.562, 768,96.016L 768,607.984 C 768,678.392, 710.413,736, 640.011,736z M 356.796,429.259
		c-5.463-1.953-13.266-4.094-23.409-6.44c 3.12-8.974, 4.684-17.364, 4.684-25.166c0-24.969-7.514-46.724-22.533-65.259
		c-15.023-18.531-34.434-29.554-58.234-33.064c-15.603-2.345-23.406-10.734-23.406-25.169c0-5.071, 2.534-10.147, 7.608-15.217
		c 6.633-7.414, 16.386-12.099, 29.264-14.051c 55.793-8.582, 83.689-31.795, 83.689-69.641c0-60.481-36.093-90.722-108.272-90.722
		c-29.657,0-54.042,5.269-73.158,15.803c-24.194,13.266-36.282,34.14-36.282,62.625c0,32.778, 18.144,55.212, 54.423,67.303l0,1.17 
		c-13.263,8.193-19.895,20.678-19.895,37.458c0,21.849, 6.243,35.508, 18.726,40.966l0,1.171 c-12.485,4.293-23.605,14.049-33.36,29.268
		c-10.923,16.389-16.388,33.945-16.388,52.672c0,28.093, 9.953,51.502, 29.844,70.23c 19.122,17.561, 41.946,26.337, 68.48,26.337
		c 19.12,0, 36.868-4.679, 53.258-14.042c 18.727,0, 40.382,4.68, 64.97,14.042L 356.796,429.259L 356.796,429.259z M 451.634,226.755
		l-66.139,0 c 0.782,7.801, 1.169,21.063, 1.169,39.798L 386.662,448.572 c0,18.34-0.392,31.023-1.169,38.038l 66.139,0 
		c-0.782-7.413-1.171-19.703-1.171-36.873l0-179.673 C 450.462,250.163, 450.854,235.726, 451.634,226.755z M 447.238,545.138
		c-7.998-8.583-17.462-12.871-28.384-12.871c-11.315,0-20.968,4.288-28.969,12.871c-8,8.589-12.002,18.729-12.002,30.434
		c0,12.101, 4.002,22.434, 12.002,31.024c 8,8.582, 17.655,12.876, 28.969,12.876c 10.923,0, 20.388-4.295, 28.384-12.876
		c 8-8.592, 11.998-18.922, 11.998-31.024C 459.237,563.868, 455.238,553.726, 447.238,545.138z M 631.268,234.364
		c-14.441-7.808-31.804-11.704-52.093-11.704c-28.477,0-48.186,10.14-59.108,30.43c-8.197,15.217-12.29,39.21-12.29,71.985l0,104.763 
		l 0.584,0 l0,1.171 l-8.779,0.587c-5.073,0-11.709-0.587-19.901-1.756L 479.68,486.61 l 28.675,0 l0,22.824 c0,10.928-0.584,19.71-1.755,26.34l 67.888,0 
		c-1.163-7.41-1.752-15.799-1.752-25.164l0-23.998 l 50.914,0 l0-56.769 c-1.948,0-5.558,0.194-10.827,0.584
		c-5.268,0.392-10.242,0.59-14.924,0.59l-25.166,0 l0-108.858 c0-26.148, 8.587-39.218, 25.751-39.218c 12.095,0, 23.022,3.314, 32.781,9.948
		L 631.268,234.364 L 631.268,234.364zM 240.912,435.695c-24.582,0-36.873-14.441-36.873-43.309c0-26.927, 12.291-40.386, 36.873-40.386
		c 23.802,0, 35.701,13.656, 35.701,40.969c0,11.317-2.73,21.071-8.192,29.267C 261.788,431.207, 252.617,435.695, 240.912,435.695z"  />
<glyph unicode="&#xe14c;" d="M 176.458,549.46c-38.094,0-70.863-12.605-98.313-37.812c-28.564-26.889-42.855-60.495-42.855-100.827
		c0-26.889, 7.782-52.097, 23.471-75.624c 14.005-21.845, 28.635-35.855, 47.834-42.018l0-1.681 c-19.198-7.836-27.724-27.443-27.724-58.814
		c0-24.093, 8.529-42.017, 27.724-53.781l0-1.681 c-52.99-17.36-77.244-49.57-77.244-96.623c0-40.901, 17.811-70.866, 52.55-89.909
		C 109.343-24.438, 144.583-32, 187.159-32c 103.627,0, 155.555,43.411, 155.555,130.248c0,54.334-39.992,87.662-120.096,99.987
		c-18.485,2.795-32.465,9.522-41.986,20.168c-7.281,7.281-10.906,14.563-10.906,21.845c0,20.724, 11.219,32.772, 33.615,36.132
		c 34.169,5.036, 62.046,20.868, 83.615,47.472c 21.563,26.61, 32.348,57.838, 32.348,93.687c0,11.204-3.388,23.247-7.866,36.129
		c 14.563,3.366, 24.787,6.445, 32.469,9.249L 343.905,549.46 c-33.791-13.446-65.242-20.163-92.132-20.163
		C 228.243,542.738, 203.906,549.46, 176.458,549.46z M 185.702,130.173c 47.058,0, 70.578-14.282, 70.578-42.855
		c0-30.252-21.566-45.369-64.698-45.369c-49.293,0-73.939,14.567-73.939,43.691C 117.641,115.332, 140.325,130.173, 185.702,130.173z
		 M 179.82,352c-35.291,0-52.939,19.323-52.939,57.981c0,41.447, 17.649,62.18, 52.939,62.18c 16.802,0, 29.968-6.447, 39.489-19.326
		c 7.844-11.768, 11.768-25.77, 11.768-42.017C 231.076,371.61, 213.987,352, 179.82,352zM 435.288,736c-16.242,0-30.105-6.161-41.59-18.486c-11.486-12.327-17.227-27.162-17.227-44.532
		c0-16.808, 5.744-31.365, 17.227-43.694c 11.481-12.326, 25.344-18.48, 41.59-18.48c 15.683,0, 29.271,6.156, 40.755,18.48
		c 11.484,12.328, 17.22,26.886, 17.22,43.694c0,17.37-5.736,32.208-17.22,44.532C 464.554,729.839, 450.971,736, 435.288,736zM 482.347,544.002l-94.954,0 c 1.122-10.752-0.48-27.032-0.48-53.355l0-261.324 c0-26.892, 1.602-48.581, 0.48-57.027l 94.954,0 
		c-1.125,12.282-4.046,33.501-4.046,62.069L 478.302,492.324 C 478.298,516.971, 481.222,533.25, 482.347,544.002zM 691.752,252.85c-24.654,0-36.812,18.771-36.812,56.3l0,154.98 l 37.398,0 c 6.72,0, 12.774,0.369, 20.338-0.184
		c 7.565-0.561, 10.614-0.188, 14.458-0.188l0,80.242 l-72.194,0 l0,35.712 c0,13.442, 2.112,25.727, 3.791,33.407l-97.469,0 
		c 1.681-7.68, 1.521-19.407, 1.521-35.093L 562.785,544 l-42.24,0 l0-80.241 c 11.523,1.68, 21.817,2.517, 29.097,2.517l 13.143-0.839l0-0.438 l0,0l0-151.651 
		c0-47.056, 5.969-81.504, 17.727-103.35c 15.692-29.13, 43.216-43.694, 84.102-43.694c 29.136,0, 54.838,5.598, 74.035,16.808l0,84.024 
		C 723.294,257.611, 709.113,252.85, 691.752,252.85z"  />
<glyph unicode="&#xe167;" d="M 648,496c-26.4,0-48-21.6-48-48l0-192 c0-26.4, 21.6-48, 48-48s 48,21.6, 48,48L 696,448 C 696,474.4, 674.4,496, 648,496zM 72,496c-26.4,0-48-21.6-48-48l0-192 c0-26.4, 21.6-48, 48-48s 48,21.6, 48,48L 120,448 C 120,474.4, 98.399,496, 72,496zM 144,184c0-39.765, 32.235-72, 72-72l 24,0 l0-96 c0-26.4, 21.6-48, 48-48s 48,21.6, 48,48l0,96 l 48,0 l0-96 c0-26.4, 21.602-48, 48-48s 48,21.6, 48,48
		l0,96 l 24,0 c 39.765,0, 72,32.235, 72,72L 576,448 L 144,448 L 144,184 zM 448.948,668.88l 30.378,58.355c 1.524,2.926, 0.375,6.568-2.551,8.092s-6.568,0.375-8.092-2.551l-30.839-59.24
		C 413.696,682.872, 387.448,688, 360,688c-27.447,0-53.694-5.128-77.847-14.465L 251.316,732.774c-1.524,2.926-5.165,4.075-8.092,2.551
		s-4.075-5.165-2.551-8.092l 30.375-58.356c-67.972-30.764-117.18-95.688-125.715-172.878l 429.33,0 
		C 566.13,573.191, 516.923,638.114, 448.948,668.88z M 264,533.2c-19.22,0-34.8,15.581-34.8,34.8c0,19.22, 15.581,34.8, 34.8,34.8
		s 34.8-15.581, 34.8-34.8C 298.798,548.78, 283.219,533.2, 264,533.2z M 456,533.2c-19.22,0-34.802,15.581-34.802,34.8
		c0,19.22, 15.583,34.8, 34.802,34.8s 34.799-15.581, 34.799-34.8C 490.798,548.78, 475.219,533.2, 456,533.2z"  />
<glyph unicode="&#xe166;" d="M 309.173,352.065c-35.781,18.389-70.564,27.718-103.41,27.718c-4.467,0-8.964-0.135-13.461-0.531
		c-41.91-3.468-80.191-14.526-104.813-23.121c-6.531-2.398-13.226-4.932-20.122-7.729L0,114.856
		c 46.276,17.124, 87.219,25.454, 124.703,25.454c 60.635,0, 104.646-22.656, 140.994-45.978c 17.221,58.439, 58.533,199.567, 70.862,241.743
		C 327.596,341.537, 318.501,347.002, 309.173,352.065zM 396.261,292.697l-67.834-235.611c 20.124-11.529, 87.823-48.037, 139.659-48.037c 41.844,0, 88.689,10.722, 143.125,32.844
		l 64.767,226.482c-43.974-14.192-86.157-21.39-125.598-21.39C 478.418,246.985, 428.044,270.308, 396.261,292.697zM 219.617,459.407c 57.838-0.599, 100.614-22.656, 136.062-45.377l 69.564,238.008c-14.659,8.397-53.105,29.321-80.894,36.45
		c-18.29,4.263-37.515,6.462-57.903,6.462c-38.847-0.732-81.291-10.46-129.666-29.85l-66.33-232.947
		c 48.606,18.327, 90.483,27.255, 129.065,27.255C 219.549,459.407, 219.617,459.407, 219.617,459.407zM 768,587.407c-44.111-17.124-87.156-25.849-128.271-25.849c-68.764,0-119.469,23.852-152.32,46.775L 418.446,369.655
		c 46.309-29.781, 96.218-44.909, 148.591-44.909c 42.711,0, 86.955,10.26, 131.596,30.516l-0.137,1.667l 2.8,0.664L 768,587.407z"  />
<glyph unicode="&#xe165;" d="M 0.262,352 L 0,586.055 L 288,625.163 L 288,352 ZM 336,632.138 L 719.904,688 L 719.904,352 L 336,352 ZM 719.999,304 L 719.904-32 L 336,22.012 L 336,304 ZM 288,28.123 L 0.234,67.569 L 0.219,304 L 288,304 Z"  />
<glyph unicode="&#xe162;" d="M 731.482,302.547c 2.109,15.6, 3.322,31.459, 3.322,47.604c0,193.733-157.906,350.808-352.654,350.808
	c-19.356,0-38.332-1.59-56.799-4.62c-33.108,21.576-72.513,34.151-114.918,34.151C 94.149,730.489,0,636.277,0,520.030
	c0-42.297, 12.448-81.591, 33.885-114.583c-2.888-18.026-4.364-36.484-4.364-55.288c0-193.764, 157.826-350.823, 352.627-350.823
	c 21.986,0, 43.391,2.141, 64.194,5.899c 32.325-20.053, 70.401-31.722, 111.219-31.722C 673.815-26.489, 768,67.747, 768,183.982
	C 767.995,227.922, 754.56,268.774, 731.482,302.547z M 415.11,91.606c-112.058-5.838-164.496,18.956-212.534,64.037
	c-53.648,50.35-32.097,107.781, 11.61,110.702c 43.683,2.916, 69.91-49.519, 93.225-64.104c 23.286-14.532, 111.891-47.64, 158.691,5.862
	c 50.964,58.242-33.891,88.38-96.088,97.503c-88.805,13.149-200.925,61.188-192.202,155.861c 8.724,94.611, 80.373,143.121, 155.775,149.964
	c 96.115,8.726, 158.686-14.561, 208.178-56.79c 57.225-48.794, 26.262-103.341-10.199-107.73c-36.318-4.364-77.106,80.256-157.186,81.528
	c-82.541,1.296-138.326-85.892-36.429-110.676c 101.949-24.758, 211.125-34.929, 250.442-128.125
	C 627.735,196.43, 527.26,97.448, 415.11,91.606z"  />
<glyph unicode="&#xe160;" d="M 639,736L 129,736 C 58.050,736,0,677.95,0,607l0-510 c0-70.95, 58.050-129, 129-129l 510,0 c 70.95,0, 129,58.050, 129,129L 768,607 C 768,677.95, 709.95,736, 639,736z M 288,112l-96,0 
	L 192,448 l 96,0 L 288,112 z M 240,496c-26.509,0-48,21.491-48,48s 21.491,48, 48,48s 48-21.491, 48-48S 266.51,496, 240,496z M 624,112l-96,0 L 528,304 
	c0,26.509-21.491,48-48,48s-48-21.491-48-48l0-192 l-96,0 L 336,448 l 96,0 l0-59.604 C 451.798,415.594, 482.064,448, 516,448c 59.648,0, 108-53.725, 108-120
	L 624,112 z"  />
<glyph unicode="&#xe15a;" d="M 768,256 L 768-32 L 0-32 L 0,256 L 96,256 L 96,64 L 672,64 L 672,256 ZM 144,208L 624,208L 624,112L 144,112zM 155.364,311.9L 176.137,405.623L 644.762,301.751L 623.988,208.029zM 209.744,504.582L 250.313,591.586L 685.337,388.738L 644.768,301.733zM 743.792,464.893 L 685.35,388.731 L 304.54,680.936 L 346.793,736 L 390.476,736 Z"  />
<glyph unicode="&#xe159;" d="M 384,736C 171.922,736,0,564.078,0,352s 171.919-384, 384-384c 212.077,0, 384,171.922, 384,384S 596.077,736, 384,736z M 421.233,222.911
	c-34.89,2.71-49.532,19.992-76.878,36.606C 329.31,180.635, 310.932,105.005, 256.5,65.503
	c-16.803,119.226, 24.67,208.773, 43.928,303.835c-32.838,55.279, 3.952,166.525, 73.215,139.106
	c 85.22-33.711-73.8-205.506, 32.949-226.962c 111.465-22.401, 156.966,193.394, 87.856,263.568
	c-99.868,101.329-290.699,2.31-267.233-142.767c 5.71-35.469, 42.354-46.228, 14.643-95.177c-63.915,14.169-82.988,64.577-80.532,131.784
	c 3.951,110.006, 98.838,187.023, 194.014,197.674c 120.363,13.473, 233.329-44.181, 248.93-157.407
	C 621.83,351.365, 549.934,212.961, 421.233,222.911z"  />
<glyph unicode="&#xe175;" d="M 640.013,736L 127.986,736 C 57.298,736,0,678.685,0,607.986l0-511.972 C0,25.313, 57.298-32, 127.986-32l 512.026,0 
	C 710.7-32, 768,25.313, 768,96.013L 768,607.986 C 768,678.685, 710.7,736, 640.013,736z M 421.233,222.911
	c-34.89,2.71-49.532,19.992-76.878,36.606c-15.045-78.883-33.421-154.513-87.853-194.016
	c-16.803,119.226, 24.67,208.773, 43.928,303.835c-32.84,55.279, 3.952,166.525, 73.215,139.106
	c 85.22-33.711-73.8-205.506, 32.949-226.962c 111.465-22.401, 156.966,193.394, 87.856,263.568
	c-99.868,101.329-290.699,2.31-267.233-142.767c 5.71-35.469, 42.354-46.228, 14.643-95.177c-63.915,14.169-82.988,64.577-80.532,131.784
	c 3.951,110.006, 98.838,187.023, 194.014,197.674c 120.363,13.473, 233.329-44.181, 248.93-157.407
	C 621.83,351.365, 549.934,212.961, 421.233,222.911z"  />
<glyph unicode="&#xe16b;" d="M 660.476,637.919c 19.273-9.432, 36.071-22.864, 48.376-39.361c 25.902-34.725, 33.177-82.029, 21.627-140.6
	c-11.67-59.269-37.812-109.3-75.874-145.533c-6.962-7.277-14.417-14.059-22.353-20.31c-40.767-32.102-92.249-49.071-148.881-49.071
	l-9.084,0 L 303.326,243.044 L 254.903,16l-99.318,0 l 7.565,34.725l 34.596,0 l 48.423,227.044l 141.203,0 c 135.188,0, 248.203,83.309, 278.443,224.952
	C 700.106,663.097, 585.115,736, 486.256,736L 149.298,736 L0,50.725l 114.024,0 L 96-32l 197.745,0 l 48.423,227.044l 141.203,0 
	c 135.188,0, 248.203,83.309, 278.443,224.952C 787.101,538.256, 731.211,608.945, 660.476,637.919z M 316.758,596.439l 96.849,0 
	c 48.444,0, 80.702-41.653, 66.59-93.717c-12.102-52.080-62.539-93.732-112.98-93.732l-92.819,0 L 316.758,596.439z"  />
<glyph unicode="&#xe16d;" d="M 660.476,637.919c 19.273-9.432, 36.071-22.864, 48.376-39.361c 25.902-34.725, 33.177-82.029, 21.627-140.6
	c-11.67-59.269-37.812-109.3-75.874-145.533c-6.962-7.277-14.417-14.059-22.353-20.31c-40.767-32.102-92.249-49.071-148.881-49.071
	l-9.084,0 L 303.326,243.044 L 254.903,16l-99.318,0 l 7.565,34.725l 34.596,0 l 48.423,227.044l 141.203,0 c 135.188,0, 248.203,83.309, 278.443,224.952
	C 700.106,663.097, 585.115,736, 486.256,736L 149.298,736 L0,50.725l 114.024,0 L 96-32l 197.745,0 l 48.423,227.044l 141.203,0 
	c 135.188,0, 248.203,83.309, 278.443,224.952C 787.101,538.256, 731.211,608.945, 660.476,637.919z M 480.196,502.721
	c-10.293-44.295-48.321-81.030-90.492-91.026l 23.053,102.016l 69.74,0 C 481.952,510.108, 481.206,506.445, 480.196,502.721z M 316.758,596.439
	l 96.849,0 c 27.57,0, 49.881-13.503, 61.403-34.725l-100.615,0 l-34.512-152.722l-65.484,0 L 316.758,596.439z"  />
<glyph unicode="&#xe174;" d="M 766.894,485.395l-8.895-57.060c0,0-12.716,105.642-28.299,145.136c-23.884,60.516-34.511,60.030-34.581,59.941
	c 15.997-40.653, 13.096-62.493, 13.096-62.493s-28.344,77.249-103.284,101.826c-83.014,27.211-127.927,19.773-133.116,18.364
	c-0.788,0.006-1.548,0.007-2.272,0.007c 0.613-0.046, 1.209-0.109, 1.82-0.159c-0.026-0.015-0.068-0.032-0.061-0.039
	c 0.338-0.411, 91.73-15.976, 107.937-38.247c0,0-38.82,0-77.454-11.132c-1.746-0.5, 142.143-17.973, 171.56-161.756
	c0,0-15.773,32.907-35.28,38.496c 12.83-39.027, 9.536-113.082-2.682-149.887c-1.572-4.734-3.18,20.462-27.246,31.313
	c 7.71-55.234-0.462-142.842-38.781-166.974c-2.987-1.878, 24.023,86.483, 5.431,52.322c-107.031-164.101-233.553-75.729-290.436-36.832
	c 29.149-6.346, 84.49,0.989, 108.986,19.209c 0.032,0.022, 0.058,0.042, 0.088,0.065c 26.601,18.189, 42.354,31.473, 56.501,28.329
	c 14.155-3.161, 23.578,11.045, 12.585,23.648c-11.007,12.629-37.736,29.983-73.893,20.524c-25.5-6.678-57.1-34.892-105.336-6.324
	c-37.023,21.938-40.509,40.16-40.838,52.782c 0.913,4.474, 2.066,8.652, 3.432,12.468c 4.261,11.902, 17.184,15.494, 24.37,18.328
	c 12.192-2.094, 22.697-5.896, 33.726-11.555c 0.143,3.671, 0.189,8.543-0.013,14.070c 1.057,2.102, 0.404,8.439-1.292,16.185
	c-0.977,7.731-2.565,15.73-5.064,23.019c 0.009,0.002, 0.015,0.007, 0.022,0.011c 0.042,0.013, 0.081,0.030, 0.117,0.053
	c 0.058,0.033, 0.109,0.084, 0.156,0.143c 0.009,0.015, 0.022,0.026, 0.033,0.039c 0.061,0.093, 0.115,0.204, 0.149,0.35
	c 0.765,3.464, 9.017,10.143, 19.288,17.325c 9.204,6.435, 20.027,13.272, 28.551,18.564c 7.545,4.686, 13.29,8.162, 14.509,9.074
	c 0.464,0.35, 1.018,0.759, 1.623,1.227c 0.112,0.087, 0.225,0.174, 0.341,0.265c 0.071,0.055, 0.143,0.111, 0.214,0.17
	c 4.058,3.231, 10.113,9.336, 11.384,22.183c 0.003,0.032, 0.007,0.060, 0.009,0.091c 0.038,0.378, 0.069,0.76, 0.098,1.151
	c 0.021,0.271, 0.038,0.544, 0.054,0.822c 0.011,0.213, 0.024,0.424, 0.033,0.642c 0.022,0.506, 0.038,1.023, 0.045,1.548
	c0,0.030, 0.002,0.057, 0.003,0.087c 0.017,1.244-0.005,2.54-0.078,3.901c-0.041,0.76-0.095,1.448-0.223,2.071
	c-0.006,0.033-0.013,0.069-0.021,0.102c-0.013,0.061-0.027,0.123-0.044,0.183c-0.027,0.109-0.057,0.219-0.091,0.323
	c-0.005,0.013-0.007,0.024-0.012,0.035c-0.039,0.12-0.084,0.235-0.131,0.348c-0.003,0.005-0.003,0.007-0.005,0.012
	c-1.316,3.081-6.24,4.244-26.581,4.588c-0.019,0.002-0.038,0.002-0.057,0.002l0,0c-8.3,0.141-19.154,0.146-33.377,0.088
	c-24.938-0.101-38.721,24.378-43.12,33.849c 6.030,33.345, 23.457,57.106, 52.088,73.22c 0.541,0.304, 0.435,0.556-0.206,0.734
	c 5.598,3.386-67.684,0.093-101.389-42.777c-29.916,7.435-55.99,6.934-78.462,1.66c-4.316,0.121-9.693,0.66-16.076,1.989
	c-14.943,13.542-36.336,38.552-37.482,68.406c0,0-0.069-0.054-0.189-0.153c-0.015,0.286-0.042,0.57-0.054,0.856
	c0,0-45.537-34.998-38.721-130.411c-0.017-1.527-0.048-2.99-0.090-4.405c-12.324-16.716-18.439-30.765-18.894-33.867
	C 20.097,491.233, 9.017,457.775,0,406.981c0,0, 6.306,20, 18.963,42.65c-9.309-28.517-16.623-72.867-12.327-139.392
	c0,0, 1.135,14.75, 5.155,35.995c 3.139-41.258, 16.889-92.193, 51.644-152.091c 66.711-114.99, 169.252-173.055, 282.594-181.962
	c 20.127-1.659, 40.537-1.698, 61.068-0.14c 1.887,0.134, 3.774,0.273, 5.662,0.43c 23.223,1.631, 46.6,5.139, 69.928,10.774
	C 801.567,100.345, 766.894,485.395, 766.894,485.395z"  />
<glyph unicode="&#xe173;" d="M 550.651,264.377l 177.038,0 c 1.365,12.277, 1.911,24.823, 1.911,37.647c0,60.168-16.151,116.601-44.343,165.2
	c 29.16,77.481, 28.119,143.241-10.917,182.542c-37.122,36.96-136.718,30.96-249.309-18.898c-8.328,0.63-16.739,0.954-25.228,0.954
	c-154.536,0-284.195-106.346-320.031-249.638C 128.25,444.25, 179.25,489.25, 247.38,522.021c-6.195-5.805-42.34-41.739-48.42-47.823
	C 19.299,294.589-37.358,59.968, 23.605-1.005c 46.34-46.331, 130.319-38.507, 226.782,8.736
	c 44.855-22.843, 95.625-35.723, 149.413-35.723c 144.85,0, 267.603,93.237, 312.067,223.086L 533.467,195.094 
	c-24.55-45.286-72.561-76.11-127.663-76.11c-55.101,0-103.113,30.823-127.662,76.11c-10.913,20.456-17.186,43.916-17.186,68.742l0,0.541 
	L 550.651,264.377 z M 261.226,351.397c 4.092,72.832, 64.65,130.938, 138.575,130.938c 73.924,0, 134.484-58.104, 138.575-130.938L 261.226,351.397 z M 672.725,613.144
	c 25.145-25.41, 24.516-72.16, 3.009-130.517c-36.852,56.181-90.388,100.452-153.594,125.73
	C 589.719,637.336, 644.694,641.174, 672.725,613.144z M 70.112,10.558c-32.087,32.097-22.413,99.463, 18.922,180.624
	c 25.731-72.203, 75.867-132.817, 140.502-171.865C 157.964-13.172, 99.384-18.689, 70.112,10.558z"  />
<glyph unicode="&#xe172;" d="M 382.534,736C 172.742,736, 21.973,583.828, 21.973,355.582C 21.973,152.468, 168.6-32, 382.562-32
	c 216.058,0, 363.465,184.415, 363.465,387.582C 746.026,585.652, 590.442,736, 382.534,736z M 516.268,362.094
	c-0.051-127.014-6.824-307.862-133.707-307.862l0-0.026 c-125.088,0-130.074,180.95-130.074,307.731c0,148.785, 13.92,291.426, 130.074,291.426
	C 498.717,653.364, 516.268,508.925, 516.268,362.094z"  />
<glyph unicode="&#xe171;" d="M 384,688c-18.048,0-35.781-1.344-53.118-3.909c-0.225,0.587-0.468,1.161-0.736,1.722c 9.62,7.502, 14.663,17.872, 12.476,28.164
		C 339.82,727.15, 325.826,736, 307.796,736c-3.885,0-7.844-0.422-11.76-1.254c-22.626-4.81-37.609-21.466-34.111-37.921
		c 2.126-10.003, 10.719-17.504, 22.623-20.538c-0.024-0.729-0.012-1.462, 0.032-2.2C 134.112,630.939, 24,492.333, 24,328
		c0-198.824, 161.178-360, 360-360c 198.824,0, 360,161.176, 360,360C 744,526.822, 582.823,688, 384,688z M 273.661,699.319
		c-2.030,9.545, 9.36,20.393, 24.869,23.688C 301.629,723.665, 304.748,724, 307.796,724c 12.027,0, 21.52-5.148, 23.088-12.518
		c 1.197-5.633-2.302-11.707-8.54-16.428c-5.276,3.724-12.012,5.345-18.825,3.897c-6.783-1.442-12.261-5.631-15.569-11.142
		C 280.313,689.647, 274.82,693.873, 273.661,699.319z M 577.039,134.961c-32.976-32.976-72.907-56.459-116.483-69.115l-31.797,51.576
		l-8.059-59.968C 408.633,55.839, 396.381,55, 384,55c-72.921,0-141.477,28.398-193.040,79.96
		c-32.976,32.974-56.459,72.907-69.115,116.481l 51.576,31.799l-59.97,8.059C 111.838,303.367, 111,315.619, 111,328
		c0,72.921, 28.397,141.477, 79.96,193.040c 32.976,32.976, 72.909,56.459, 116.483,69.117l 31.797-51.578l 8.061,59.97
		C 359.367,600.161, 371.619,601, 384,601c 72.921,0, 141.477-28.397, 193.040-79.96c 32.976-32.976, 56.459-72.909, 69.115-116.483
		l-51.578-31.799l 59.97-8.059C 656.161,352.633, 657,340.381, 657,328C 657,255.079, 628.602,186.523, 577.039,134.961zM 570.677,514.676l-147.733-112.278c-10.983,5.744-23.157,9.046-35.562,9.545l-38.31,80.385l-2.301-88.998
		c-9.963-4.902-18.828-11.748-26.157-20.212l-47.316,16.773l 34.569-36.403c-4.75-10.139-7.399-21.023-7.825-32.118l-80.368-38.3
		l 89.053-2.301c 0.285-0.576, 0.581-1.145, 0.877-1.712l-112.278-147.735l 147.733,112.278c 10.983-5.742, 23.155-9.045, 35.562-9.543l 38.31-80.386
		l 2.3,88.998c 9.964,4.904, 18.83,11.748, 26.159,20.214l 47.318-16.776l-34.571,36.405c 4.752,10.14, 7.401,21.023, 7.827,32.118
		l 80.367,38.3l-89.052,2.302c-0.283,0.575-0.581,1.143-0.877,1.71L 570.677,514.676z M 384.077,402.6l0-2.586 L 384.077,402.6 
		L 384.077,402.6z M 369.031,398.426c 5.045,1.073, 10.083,1.588, 15.042,1.588c 3.108,0, 6.188-0.203, 9.221-0.597l 0.069-0.024
		l-0.007,0.017c 6.549-0.858, 12.882-2.625, 18.849-5.172l-53.66-40.782l-40.785-53.664c-1.782,4.196-3.202,8.613-4.185,13.239
		C 305.305,351.927, 330.135,390.159, 369.031,398.426z M 421.59,266.587L 421.59,266.587L 421.59,266.587
		c-6.792-4.158-14.386-7.263-22.62-9.014c-5.045-1.073-10.083-1.588-15.040-1.588c-3.113,0-6.193,0.204-9.231,0.599l-0.058,0.022
		l 0.007-0.015c-6.55,0.856-12.88,2.625-18.849,5.171l 53.658,40.782l 40.785,53.666c 1.782-4.196, 3.202-8.614, 4.185-13.241
		C 460.944,312.307, 446.885,282.069, 421.59,266.587z"  />
<glyph unicode="&#xe170;" d="M 194.658,352.002A88.834,88.834 12780 1 1 372.327,352.002A88.834,88.834 12780 1 1 194.658,352.002zM 384.003,736C 171.922,736,0,564.076,0,352s 171.919-384, 384.003-384C 596.076-32, 768,139.923, 768,352
		C 768,564.076, 596.077,736, 384.003,736z M 284.547,16.538C 169.080,83.719, 91.446,208.782, 91.446,352
		c0,143.219, 77.634,268.281, 193.096,335.462C 400.050,620.29, 477.735,495.246, 477.735,352C 477.735,208.759, 400.050,83.712, 284.547,16.538z"  />
<glyph unicode="&#xe17e;" d="M 672,376l-1.176,0 C 659.016,249.4, 556.608,112, 432,112l0-96 l 144,0 c 13.272,0, 24-10.728, 24-24
	s-10.728-24-24-24L 192-32 c-13.272,0-24,10.728-24,24s 10.728,24, 24,24l 144,0 l0,96 c-124.608,0-226.992,137.4-238.824,264L 96,376 l0,24 l0,0l0,0l0,24 l0,0L 96,520 c0,26.496, 21.504,48, 48,48
	s 48-21.504, 48-48l0-48 l0-48 l0-24 c0-106.032, 85.968-192, 192-192s 192,85.968, 192,192l0,24 l0,48 L 576,520 c0,26.496, 21.504,48, 48,48s 48-21.504, 48-48l0-48 l0,0L 672,376 z M 384,304
	c-66.288,0-96,53.712-96,120L 288,616 c0,66.264, 29.712,120, 96,120s 96-53.736, 96-120l0-192 C 480,357.712, 450.288,304, 384,304z M 420,400c 6.624,0, 12,5.376, 12,12
	c0,6.6-5.376,12-12,12S 408,418.6, 408,412C 408,405.376, 413.376,400, 420,400z M 348,544C 341.376,544, 336,538.6, 336,532
	C 336,525.376, 341.376,520, 348,520S 360,525.376, 360,532C 360,538.6, 354.624,544, 348,544z M 360,580C 360,586.624, 354.624,592, 348,592S 336,586.624, 336,580
	C 336,573.376, 341.376,568, 348,568S 360,573.376, 360,580z M 372,472c-6.624,0-12-5.4-12-12c0-6.624, 5.376-12, 12-12s 12,5.376, 12,12
	C 384,466.6, 378.624,472, 372,472z M 396,472c 6.624,0, 12,5.376, 12,12c0,6.6-5.376,12-12,12S 384,490.6, 384,484
	C 384,477.376, 389.376,472, 396,472z M 372,496c 6.624,0, 12,5.376, 12,12C 384,514.6, 378.624,520, 372,520S 360,514.6, 360,508
	C 360,501.376, 365.376,496, 372,496z M 348,496c-6.624,0-12-5.4-12-12c0-6.624, 5.376-12, 12-12s 12,5.376, 12,12
	C 360,490.6, 354.624,496, 348,496z M 372,544C 378.624,544, 384,549.376, 384,556C 384,562.624, 378.624,568, 372,568S 360,562.624, 360,556
	C 360,549.376, 365.376,544, 372,544z M 396,568C 402.624,568, 408,573.376, 408,580C 408,586.624, 402.624,592, 396,592S 384,586.624, 384,580C 384,573.376, 389.376,568, 396,568z
	 M 396,544C 389.376,544, 384,538.6, 384,532C 384,525.376, 389.376,520, 396,520S 408,525.376, 408,532C 408,538.6, 402.624,544, 396,544z M 420,544
	C 426.624,544, 432,549.376, 432,556C 432,562.624, 426.624,568, 420,568S 408,562.624, 408,556C 408,549.376, 413.376,544, 420,544z M 420,520C 413.376,520, 408,514.6, 408,508
	c0-6.624, 5.376-12, 12-12S 432,501.376, 432,508C 432,514.6, 426.624,520, 420,520z M 420,472c-6.624,0-12-5.4-12-12
	c0-6.624, 5.376-12, 12-12s 12,5.376, 12,12C 432,466.6, 426.624,472, 420,472z M 396,424c 6.624,0, 12,5.376, 12,12
	c0,6.6-5.376,12-12,12S 384,442.6, 384,436C 384,429.376, 389.376,424, 396,424z M 372,400c 6.624,0, 12,5.376, 12,12
	c0,6.6-5.376,12-12,12S 360,418.6, 360,412C 360,405.376, 365.376,400, 372,400z M 348,424c 6.624,0, 12,5.376, 12,12
	c0,6.6-5.376,12-12,12S 336,442.6, 336,436C 336,429.376, 341.376,424, 348,424z M 348,640C 341.376,640, 336,634.624, 336,628
	C 336,621.376, 341.376,616, 348,616S 360,621.376, 360,628C 360,634.624, 354.624,640, 348,640z M 372,616C 365.376,616, 360,610.624, 360,604C 360,597.376, 365.376,592, 372,592
	S 384,597.376, 384,604C 384,610.624, 378.624,616, 372,616z M 396,640C 389.376,640, 384,634.624, 384,628C 384,621.376, 389.376,616, 396,616S 408,621.376, 408,628
	C 408,634.624, 402.624,640, 396,640z M 420,616C 413.376,616, 408,610.624, 408,604C 408,597.376, 413.376,592, 420,592S 432,597.376, 432,604C 432,610.624, 426.624,616, 420,616z"  />
<glyph unicode="&#xe17d;" d="M 384,64.744c-15.576,0-38.376,17.52-53.496,19.128c-43.128-36.168-88.056-79.704-149.136-102.336
	c-26.664-11.304-49.56-17.856-55.512-10.728c-7.992,9.288-20.064,22.176-22.2,25.632c 0.12,5.136, 6.336,1.080, 13.104,8.376
	c 36.864,15.504, 60.672,55.512, 76.68,104.424C 77.976,167.104,0,275.656,0,400.312C0,585.616, 171.936,735.856, 384,735.856s 384-150.216, 384-335.544
	S 596.064,64.744, 384,64.744z"  />
<glyph unicode="&#x4e;" d="M 384,736C 171.912,736,0,564.064,0,352c0-212.064, 171.912-384, 384-384s 384,171.936, 384,384
	C 768,564.064, 596.088,736, 384,736z M 384,592c 26.496,0, 48-21.504, 48-48s-21.504-48-48-48s-48,21.504-48,48S 357.504,592, 384,592z M 264,160l 72,48l 48,0 l0,192 l-48,0 l-24,48l 120,0 l0-48 l0-192 l 48,0 l 72-48
	L 264,160 z"  />
<glyph unicode="&#xe197;" d="M 672,736L 96,736 C 82.752,736, 72,725.248, 72,712l0-144 c0-13.248, 10.752-24, 24-24l 24,0 c 13.248,0, 24,10.752, 24,24l 48,72l 144,0 
	l0-576 l-120-48c-13.248,0-24-10.728-24-24s 10.752-24, 24-24l 336,0 c 13.272,0, 24,10.728, 24,24s-10.728,24-24,24l-120,48L 432,640 l 144,0 l 48-72c0-13.248, 10.728-24, 24-24l 24,0 
	c 13.272,0, 24,10.752, 24,24L 696,712 C 696,725.248, 685.272,736, 672,736z"  />
<glyph unicode="&#xe1ad;" d="M 372,352c-53.016,0-96,42.984-96,96l-144,0 l0-240 c0-132.528, 107.448-240, 240-240
		c 132.552,0, 240,107.472, 240,240L 612,448 l-144,0 C 468,394.984, 425.016,352, 372,352z M 276,544c0,53.016, 42.984,96, 96,96s 96-42.984, 96-96l0-48 l 144,0 
		c0,132.552-107.448,240-240,240c-132.552,0-240-107.448-240-240l 144,0 L 276,544 z M 348,568l0-144 c0-13.248, 10.752-24, 24-24s 24,10.752, 24,24L 396,568 c0,13.248-10.752,24-24,24
		S 348,581.248, 348,568z"  />
<glyph unicode="&#xe1b8;" d="M 325.944,15.832c 170.448,0, 320.904,94.464, 320.904,251.88c0,57.432-26.856,92.616-38.112,111.144c-9.384,11.112-9.384,20.376, 13.128,22.224
	c 88.008,12.96, 146.064,61.128, 146.064,153.72c0,50.016-41.208,110.16-116.112,110.16c-35.568,0-79.032-34.224-79.032-71.256
	c0-20.4, 20.976-44.736, 50.928-44.736c 33.72,0, 52.824,35.472, 47.208,50.304c-1.848,9.264-7.848,20.376, 5.232,20.376
	c 24.384,0, 52.464-31.488, 52.464-61.128c0-51.864-48.696-87.504-125.496-87.504c-41.208,0-76.776,25.416-116.112,25.416
	c-99.264,0-157.32-78.672-157.32-147.216c0-77.784, 59.928-114.816, 104.88-114.816c 50.544,0, 65.544,29.616, 65.544,53.712
	c0,27.768-16.872,46.296-52.464,46.296c-28.080,0-41.208-29.616-39.336-44.448c 1.872-7.416-3.744-12.96-9.384-12.96
	c-7.488,0-29.952,24.072-29.952,55.536c0,22.248, 15,95.352, 93.648,95.352c 84.264,0, 142.968-76.8, 142.968-139.776
	c0-88.896-99.912-183.384-270.336-183.384c-170.448,0-267.816,77.784-267.816,190.776c0,51.864, 22.488,100.008, 50.544,120.384
	c 11.256,7.416, 16.872,5.544, 22.488-3.696c 13.128-9.264, 43.080-34.224, 61.8-34.224c 24.36,0, 37.464,30.504, 37.464,56.472
	c0,22.224-26.208,37.488-48.672,37.488s-37.464-13.416-46.824-17.112c-13.104,20.376-20.592,46.296-20.592,66.672c0,59.256, 43.080,96.456, 84.288,96.456
	c 35.568,0, 65.544-27.912, 59.928-63.12c-1.872-9.264-1.872-16.656, 1.872-16.656c 14.976,0, 48.672,22.224, 48.672,62.976
	c0,57.408-43.056,87.048-99.264,87.048c-91.752,0-147.936-64.824-147.936-133.368c0-40.728, 14.976-77.784, 39.336-109.272
	c-37.464-16.656-110.496-79.632-110.496-190.776C 0.072,160.312, 65.616,15.832, 325.944,15.832z"  />
<glyph unicode="&#xe1d0;" d="M 310.824,64.552c-0.6-0.6-1.224-1.224-1.8-1.824
	c-60.192-57.576-155.928-58.704-213.984-2.304c-61.584,57.96-62.808,141.912, 1.056,206.496c 0.504,0.504, 0.912,1.032, 1.416,1.536
	c 0.6,0.552, 1.176,1.152, 1.752,1.704l 396.48,385.296l0-0.168 l 0.096,0.312l 3.144,3.072c 36.624,34.848, 94.704,35.472, 129.936,1.224
	c 21.192-30.192, 34.536-90.936-1.176-126.264l-3.288-3.216l-37.512-36.408l-34.416-33.48L 262.152,178.408l-0.144,0.144l-33.504-32.544
	l-0.912,1.128l-0.84-0.936l-1.656-1.824c-0.144-0.096-0.312-0.192-0.432-0.336c-13.392-12.096-34.056-12.192-46.704,0.096
	c-12.528,12.192-12.504,30.048-0.024,43.344c 0.408,0.384, 0.648,0.84, 1.056,1.224l 36.336,35.328l 266.040,258.504L 444.96,517.84L 178.92,259.288
	l-32.304-35.256l0-0.048 c-0.096-0.096-0.192-0.144-0.312-0.288c-0.288-0.288-0.528-0.552-0.816-0.864
	c-33.192-33.144-37.776-81.312-5.040-113.16c 32.76-31.8, 86.448-29.28, 120.528,3l 0.048-0.048l 0.672,0.696
	c 0.072,0.048, 0.144,0.096, 0.192,0.144c 0.072,0.048, 0.12,0.144, 0.168,0.192l 361.248,345.024l 37.464,36.456l 3.336,3.192l-0.048,0.048
	c 56.544,55.752, 29.688,160.176, 2.352,197.952c-55.632,54.048-147.216,52.728-204.552-3.024c-0.84-0.792-1.536-1.68-2.352-2.52l-0.096,0.072
	L 62.88,305.512l 0.048-0.048c-0.312-0.336-0.648-0.552-0.984-0.888c-0.552-0.504-1.056-1.176-1.608-1.728l-0.576-0.552l 0.024-0.048
	c-78.648-78.768-79.944-202.632-2.208-278.256c 78.504-76.296, 207.792-74.376, 288.72,4.272c 0.336,0.336, 0.576,0.648, 0.912,0.984l 0.096-0.096
	L 768,437.992l-36.384,35.352L 310.824,64.552z"  />
<glyph unicode="&#xe20f;" d="M 384,736C 171.936,736,0,564.064,0,352s 171.936-384, 384-384s 384,171.936, 384,384S 596.064,736, 384,736z M 324.48,174.808
		L 147.792,351.52l 67.872,67.872l 108.792-108.84l 230.808,230.808l 67.872-67.872L 324.48,174.808z"  />
<glyph unicode="&#xe211;" d="M 384,736C 171.936,736,0,564.064,0,352s 171.936-384, 384-384s 384,171.936, 384,384S 596.064,736, 384,736z M 573.936,229.936
		l-67.872-67.872L 384,284.128l-122.064-122.064l-67.872,67.872L 316.128,352l-122.064,122.064l 67.872,67.872L 384,419.872l 122.064,122.064l 67.872-67.872
		L 451.872,352L 573.936,229.936z"  />
<glyph unicode="&#xe212;" d="M 384,736C 171.936,736,0,564.064,0,352s 171.936-384, 384-384s 384,171.936, 384,384S 596.064,736, 384,736z M 384,640
		c 62.16,0, 119.352-20.256, 166.416-53.808L 149.712,185.68C 116.16,232.744, 96,289.936, 96,352C 96,510.808, 225.192,640, 384,640z M 384,64
		c-62.16,0-119.352,20.256-166.416,53.808L 618.288,518.32C 651.84,471.256, 672,414.064, 672,352C 672,193.192, 542.808,64, 384,64z"  />
<glyph unicode="&#xe24b;" d="M 768,448L 384,448L 528,592L 384,736L0,352L 384-32L 528,112L 384,256L 768,256 z"  />
<glyph unicode="&#xe24e;" d="M0,256L 384,256L 240,112L 384-32L 768,352L 384,736L 240,592L 384,448L0,448 z"  />
<glyph unicode="&#xe251;" d="M 480-32L 480,352L 624,208L 768,352L 384,736L0,352L 144,208L 288,352L 288-32 z"  />
<glyph unicode="&#xe254;" d="M 288,736L 288,352L 144,496L0,352L 384-32L 768,352L 624,496L 480,352L 480,736 z"  />
<glyph unicode="&#xe255;" d="M 384,736C 171.936,736,0,564.064,0,352c0-212.088, 171.936-384, 384-384c 212.088,0, 384,171.912, 384,384C 768,564.064, 596.088,736, 384,736z M 384,160
	l-192,192l 144,0 L 336,544 l 96,0 l0-192 l 144,0 L 384,160z"  />
<glyph unicode="&#xe253;" d="M 384-32c 212.064,0, 384,171.936, 384,384c0,212.088-171.936,384-384,384C 171.912,736,0,564.088,0,352C0,139.936, 171.912-32, 384-32z M 384,544
	l 192-192l-144,0 l0-192 l-96,0 l0,192 L 192,352 L 384,544z"  />
<glyph unicode="&#xe24c;" d="M 768,352c0,212.064-171.936,384-384,384C 171.912,736,0,564.064,0,352c0-212.088, 171.912-384, 384-384C 596.064-32, 768,139.912, 768,352z
	 M 192,352l 192,192l0-144 l 192,0 l0-96 l-192,0 l0-144 L 192,352z"  />
<glyph unicode="&#xe25a;" d="M 720,304l-48,0 l0,96 c0,159-129,288-288,288S 96,559, 96,400l0-96 L 48,304 c-26.52,0-48-21.48-48-48l0-192 c0-26.52, 21.48-48, 48-48l 144,0 L 192,400 
	c0,105.936, 86.064,192, 192,192s 192-86.064, 192-192l0-384 l 144,0 c 26.52,0, 48,21.48, 48,48l0,192 C 768,282.52, 746.52,304, 720,304z"  />
<glyph unicode="&#xe259;" d="M 288,352c 53.064,0, 96,42.984, 96,96L 384,640 c0,53.016-42.936,96-96,96S 192,693.016, 192,640l0-192 C 192,394.984, 234.936,352, 288,352zM 384,64l-48,0 l0,100.872 C 471.936,187.84, 576,305.632, 576,448l0,46.512 c0,26.52-21.48,48-48,48s-48-21.48-48-48L 480,448 
			c0-105.888-86.064-192-192-192s-192,86.112-192,192l0,46.512 c0,26.52-21.48,48-48,48s-48-21.48-48-48L0,448 c0-142.368, 104.064-260.16, 240-283.128L 240,64 L 192,64 
			c-53.064,0-96-42.936-96-96l 384,0 C 480,21.064, 437.064,64, 384,64z" horiz-adv-x="576"  />
<glyph unicode="&#xe280;" d="M 768,64L 768,352 l-192,0 c0,105.84, 86.064,192, 192,192L 768,640 c-158.808,0-288-129.192-288-288l0-288 L 768,64 zM 288,64L 288,352 L 96,352 c0,105.84, 86.064,192, 192,192L 288,640 C 129.192,640,0,510.808,0,352l0-288 L 288,64 z"  />
<glyph unicode="&#xe26a;" d="M0,640l0-288 l 192,0 c0-105.84-86.064-192-192-192l0-96 c 158.808,0, 288,129.192, 288,288L 288,640 L0,640 zM 480,640l0-288 l 192,0 c0-105.84-86.064-192-192-192l0-96 c 158.808,0, 288,129.192, 288,288L 768,640 L 480,640 z"  />
<glyph unicode="&#xe26b;" d="M 672,448L 672,544 l-120.096,0 l 24,192l-96,0 l-24-192l-191.952,0 l 24,192l-96,0 l-24-192L0,544 l0-96 l 155.952,0 L 132,256L0,256 l0-96 l 120,0 l-24-192l 96,0 l 24,192l 191.952,0 l-24-192L 480-32 
		l 24,192l 168,0 l0,96 l-156,0 l 23.904,192L 672,448 z M 419.952,256L 228,256 l 23.952,192l 191.952,0 L 419.952,256z" horiz-adv-x="672"  />
<glyph unicode="&#xe26d;" d="M 134.4,16A48,48 1620 1 1 230.4,16A48,48 1620 1 1 134.4,16zM 184.224,112.552c-32.064,0-62.16,12.48-84.84,35.16s-35.16,52.776-35.16,84.84s 12.48,62.16, 35.16,84.84
			l 160.512,160.512C 278.064,496.048, 288,520.144, 288,545.776s-9.936,49.728-28.128,67.872c-37.416,37.44-98.304,37.512-135.696,0
			C 105.984,595.504, 96,571.432, 96,545.776L0,545.776 c0,51.288, 20.016,99.528, 56.352,135.816c 72.48,72.552, 198.84,72.504, 271.416-0.048
			C 364.032,645.328, 384,597.112, 384,545.776c0-51.288-19.968-99.48-56.256-135.744L 167.256,249.52c-9.336-9.384-9.336-24.552,0-33.936
			c 9.384-9.384, 24.552-9.384, 33.936,0c 6.096,6.096, 7.032,13.32, 7.032,16.968l 96,0 c0-32.064-12.48-62.16-35.16-84.84
			S 216.288,112.552, 184.224,112.552L 184.224,112.552z" horiz-adv-x="384"  />
<glyph unicode="&#xe26e;" d="M 48,352c 26.52,0, 48-21.48, 48-48l0-192 c0-26.52-21.48-48-48-48L0,64 l0-96 l 384,0 l0,96 l-47.808,0 C 309.744,64, 288,85.48, 288,112l-0.096,336L0,448 
			l0-96 L 48,352 zM 96,640A96,96 1620 1 1 288,640A96,96 1620 1 1 96,640z" horiz-adv-x="384"  />
<glyph unicode="&#xe26f;" d="M 221.088-32c-56.616,0-113.256,21.552-156.48,64.584c-86.16,86.352-86.16,226.776,0,312.936l 194.712,190.512
		c 11.064,11.16, 17.448,26.448, 17.448,42.84c0,16.32-6.384,31.68-17.808,43.32C 235.152,646, 196.344,645.904, 172.344,622.096
		C 148.704,598.288, 148.704,559.48, 172.512,535.648L 104.544,467.68C 43.344,529, 43.344,628.648, 104.472,689.968c 61.488,61.416, 161.064,61.32, 222.336,0.096
		c 29.808-29.712, 46.128-69.288, 46.128-111.288c0-42-16.32-81.48-46.128-111.096l-194.664-190.416c-48.48-48.384-48.48-127.872, 0.48-176.712
		c 48.744-48.84, 128.256-48.744, 177.192,0c 48.696,48.84, 48.696,128.352,0,177.096l-34.128,33.936l 104.4,104.352l 67.872-67.872l-40.128-40.128
		c 54.384-85.488, 44.448-200.616-30.192-275.256C 334.488-10.448, 277.704-32, 221.088-32L 221.088-32z" horiz-adv-x="447"  />
<glyph unicode="&#xe270;" d="M 716.256,160C 749.16,216.52, 768,281.872, 768,352c0,212.064-171.936,384-384,384S0,564.064,0,352s 171.936-384, 384-384
		c 106.032,0, 202.032,42.936, 271.488,112.512L 587.52,148.48C 535.416,96.256, 463.416,64, 384,64C 225.192,64, 96,193.192, 96,352S 225.192,640, 384,640s 288-129.192, 288-288
		c0-34.128-6.552-66.744-17.52-97.128L 653.712,256L 576,256 L 576,542.968 l-192,0 c-106.032,0-192-85.968-192-192s 85.968-192, 192-192c 44.064,0, 84.192,15.48, 116.616,40.416
		C 518.064,176.128, 544.68,160, 576,160L 716.256,160 z M 480,399.808l0-48.84 c0-52.968-43.128-96-96-96s-96,43.032-96,96s 43.128,96, 96,96l 96,0 L 480,399.808 z"  />
<glyph unicode="&#xf000;" d="M0,736L 768-32L0-32 z" horiz-adv-x="0" />
<glyph unicode="&#x21;" d="M 631.509,293.89c-10.236,10.085-32.936,15.424-67.479,15.879c-23.384,0.258-51.526-1.802-81.127-5.946
		c-13.255,7.649-26.919,15.971-37.641,25.994c-28.847,26.937-52.926,64.329-67.932,105.445c 0.978,3.84, 1.811,7.215, 2.586,10.659
		c0,0, 16.25,92.295, 11.947,123.499c-0.593,4.28-0.956,5.521-2.106,8.847l-1.411,3.625c-4.422,10.194-13.086,20.995-26.675,20.406
		l-7.968,0.254l-0.219,0.005c-15.15,0-27.498-7.749-30.739-19.331c-9.854-36.325, 0.314-90.669, 18.736-161.053l-4.716-11.464
		c-13.191-32.157-29.723-64.545-44.309-93.118l-1.896-3.714c-15.345-30.028-29.268-55.519-41.891-77.117l-13.032-6.891
		c-0.948-0.501-23.283-12.313-28.521-15.483c-44.442-26.536-73.892-56.655-78.777-80.562c-1.554-7.627-0.398-17.389, 7.51-21.91
		l 12.605-6.344c 5.468-2.739, 11.233-4.127, 17.14-4.127c 31.653,0, 68.4,39.429, 119.022,127.775
		c 58.448,19.026, 124.99,34.842, 183.31,43.568c 44.444-25.026, 99.106-42.41, 133.606-42.41c 6.126,0, 11.409,0.584, 15.699,1.722
		c 6.616,1.752, 12.194,5.524, 15.594,10.644c 6.694,10.074, 8.050,23.949, 6.234,38.157C 638.52,285.116, 635.153,290.331, 631.509,293.89z
		 M 158.734,125.464c 5.772,15.782, 28.62,46.983, 62.403,74.667c 2.124,1.722, 7.356,6.624, 12.145,11.176
		C 197.957,154.964, 174.298,132.508, 158.734,125.464z M 358.826,586.236c 10.175,0, 15.963-25.646, 16.443-49.691
		c 0.48-24.045-5.143-40.92-12.119-53.406c-5.777,18.486-8.569,47.625-8.569,66.678C 354.581,549.817, 354.156,586.236, 358.826,586.236z
		 M 299.139,257.88c 7.087,12.687, 14.462,26.067, 21.997,40.258c 18.369,34.737, 29.968,61.917, 38.608,84.26
		c 17.183-31.263, 38.583-57.84, 63.74-79.134c 3.138-2.656, 6.463-5.327, 9.955-7.988C 382.282,285.154, 338.067,272.843, 299.139,257.88z
		 M 621.678,260.761c-3.115-1.948-12.040-3.075-17.781-3.075c-18.529,0-41.454,8.471-73.595,22.25
		c 12.351,0.913, 23.672,1.379, 33.825,1.379c 18.587,0, 24.090,0.081, 42.263-4.554S 624.793,262.71, 621.678,260.761zM 677.574,586.428l-107.148,107.147C 547.092,716.908, 501,736, 468,736L 108,736 C 75,736, 48,709, 48,676l0-648 c0-33, 27-60, 60-60l 552,0 
		c 33,0, 60,27, 60,60L 720,484 C 720,517, 700.908,563.094, 677.574,586.428z M 643.634,552.486c 2.348-2.348, 4.688-5.231, 6.96-8.486L 528,544 L 528,666.592 
		c 3.255-2.272, 6.138-4.613, 8.486-6.96L 643.634,552.486z M 672,28c0-6.504-5.496-12-12-12L 108,16 c-6.504,0-12,5.496-12,12L 96,676 
		c0,6.504, 5.496,12, 12,12l 360,0 c 3.624,0, 7.691-0.458, 12-1.278L 480,496 l 190.722,0 c 0.821-4.309, 1.278-8.375, 1.278-12L 672,28 z" />
<glyph unicode="&#x22;" d="M 517.665,382.238c-45.501,21.489-103.479,25.815-146.125-4.536c 51.855,4.953, 108.719-3.628, 146.329-42.843
			c 36,41.31, 93.085,49.055, 144.719,44.799C 619.471,408.267, 562.673,404.426, 517.665,382.238zM 499.236,281.687c-51.284,1.183-100.826-17.379-143.325-45.078c-80.382,34.191-182.052,27.843-250.502-29.236
			c 19.747,0.701, 39.005,5.585, 58.542,8.094c 71.386,7.116, 147.441-10.607, 201.384-59.868c 22.329,32.657, 53.733,58.681, 89.739,74.941
			c 47.305,22.89, 100.62,25.263, 152.115,25.89C 575.923,277.916, 536.227,281.896, 499.236,281.687zM 677.574,586.428l-107.148,107.147C 547.092,716.908, 501,736, 468,736L 108,736 C 75,736, 48,709, 48,676l0-648 c0-33, 27-60, 60-60l 552,0 
		c 33,0, 60,27, 60,60L 720,484 C 720,517, 700.908,563.094, 677.574,586.428z M 643.634,552.486c 2.348-2.348, 4.688-5.231, 6.96-8.486L 528,544 L 528,666.592 
		c 3.255-2.272, 6.138-4.613, 8.486-6.96L 643.634,552.486z M 672,28c0-6.504-5.496-12-12-12L 108,16 c-6.504,0-12,5.496-12,12L 96,676 
		c0,6.504, 5.496,12, 12,12l 360,0 c 3.624,0, 7.691-0.458, 12-1.278L 480,496 l 190.722,0 c 0.821-4.309, 1.278-8.375, 1.278-12L 672,28 z" />
<glyph unicode="&#x23;" d="M 479.834,379.081L 512.993,379.081L 474.733,209.447L 424.989,447.955L 345.077,447.955L 287.241,209.447L 243.879,447.955L 160.333,447.955L 245.153,64.043L 326.781,64.043L 384.001,291.074L 435.194,64.043L 510.446,64.043L 607.668,447.955L 479.834,447.955 	
		zM 677.574,586.428l-107.148,107.147C 547.092,716.908, 501,736, 468,736L 108,736 C 75,736, 48,709, 48,676l0-648 c0-33, 27-60, 60-60l 552,0 
		c 33,0, 60,27, 60,60L 720,484 C 720,517, 700.908,563.094, 677.574,586.428z M 643.634,552.486c 2.348-2.348, 4.688-5.231, 6.96-8.486L 528,544 L 528,666.592 
		c 3.255-2.272, 6.138-4.613, 8.486-6.96L 643.634,552.486z M 672,28c0-6.504-5.496-12-12-12L 108,16 c-6.504,0-12,5.496-12,12L 96,676 
		c0,6.504, 5.496,12, 12,12l 360,0 c 3.624,0, 7.691-0.458, 12-1.278L 480,496 l 190.722,0 c 0.821-4.309, 1.278-8.375, 1.278-12L 672,28 z" />
<glyph unicode="&#x25;" d="M 336,304L 288,352L 144,208L 288,64L 336,112L 240,208 	zM 432,112L 480,64L 624,208L 480,352L 432,304L 528,208 	zM 677.574,586.428l-107.148,107.147C 547.092,716.908, 501,736, 468,736L 108,736 C 75,736, 48,709, 48,676l0-648 c0-33, 27-60, 60-60l 552,0 
		c 33,0, 60,27, 60,60L 720,484 C 720,517, 700.908,563.094, 677.574,586.428z M 643.634,552.486c 2.348-2.348, 4.688-5.231, 6.96-8.486L 528,544 L 528,666.592 
		c 3.255-2.272, 6.138-4.613, 8.486-6.96L 643.634,552.486z M 672,28c0-6.504-5.496-12-12-12L 108,16 c-6.504,0-12,5.496-12,12L 96,676 
		c0,6.504, 5.496,12, 12,12l 360,0 c 3.624,0, 7.691-0.458, 12-1.278L 480,496 l 190.722,0 c 0.821-4.309, 1.278-8.375, 1.278-12L 672,28 z" />
<glyph unicode="&#x26;" d="M 144,352l 144,0 l0-48 L 144,304 L 144,352 z M 144,256l 144,0 l0-48 L 144,208 L 144,256 z M 144,160l 144,0 l0-48 L 144,112 L 144,160 z M 677.574,586.428l-107.148,107.147
	C 547.092,716.908, 501,736, 468,736L 108,736 C 75,736, 48,709, 48,676l0-648 c0-33, 27-60, 60-60l 552,0 c 33,0, 60,27, 60,60L 720,484 
	C 720,517, 700.908,563.094, 677.574,586.428z M 643.634,552.486c 2.348-2.348, 4.688-5.231, 6.96-8.486L 528,544 L 528,666.592 
	c 3.255-2.272, 6.138-4.613, 8.486-6.96L 643.634,552.486z M 672,28c0-6.504-5.496-12-12-12L 108,16 c-6.504,0-12,5.496-12,12L 96,676 c0,6.504, 5.496,12, 12,12
	l 360,0 c 3.624,0, 7.691-0.458, 12-1.278L 480,496 l 190.722,0 c 0.821-4.309, 1.278-8.375, 1.278-12L 672,28 zM 432,208 L 573.594,208 C 562.475,153.226 514.054,112 456,112 C 389.726,112 336,165.726 336,232 C 336,290.054 377.228,338.475 432,349.594 L 432,208 ZM 504,400 C 570.274,400 624,346.274 624,280 C 624,271.782 623.169,263.755 621.594,256 L 480,256 L 480,397.594 C 487.755,399.169 495.782,400 504,400 Z" />
</font>
</defs>
</svg>
